<?xml version="1.0" standalone="no"?>
<!DOCTYPE svg PUBLIC "-//W3C//DTD SVG 1.1//EN" "http://www.w3.org/Graphics/SVG/1.1/DTD/svg11.dtd" >
<svg xmlns="http://www.w3.org/2000/svg" xmlns:xlink="http://www.w3.org/1999/xlink" version="1.1">
<metadata>
Created by FontForge 20170731 at Sun Apr 10 17:39:22 2016
 By Aleksey,,,
Copyright (c) Laurenz Brunner, 2004. All rights reserved.
</metadata>
<defs>
<font id="Akkurat-Bold" horiz-adv-x="1167" >
  <font-face 
    font-family="Akkurat"
    font-weight="700"
    font-stretch="normal"
    units-per-em="2048"
    panose-1="2 0 5 3 3 0 0 2 0 4"
    ascent="1638"
    descent="-410"
    x-height="1065"
    cap-height="1452"
    bbox="-61 -500 2230 1997"
    underline-thickness="102"
    underline-position="-306"
    unicode-range="U+0020-FB02"
  />
<missing-glyph horiz-adv-x="748" 
d="M68 0v1365h544v-1365h-544zM136 68h408v1229h-408v-1229z" />
    <glyph glyph-name="uniFB01" unicode="fi" horiz-adv-x="1349" 
d="M33 854v211h180v102q0 151 96.5 243.5t265.5 92.5q91 0 201 -22v-205q-85 16 -168 16q-67 0 -103 -35t-36 -94v-98h285v-211h-285v-854h-256v854h-180zM920 1208v269h274v-269h-274zM928 0v1065h260v-1065h-260z" />
    <glyph glyph-name="uniFB02" unicode="fl" horiz-adv-x="1378" 
d="M33 854v211h180v102q0 151 96.5 243.5t265.5 92.5q91 0 201 -22v-205q-85 16 -168 16q-67 0 -103 -35t-36 -94v-98h285v-211h-285v-854h-256v854h-180zM913 274v1207h258v-1164q0 -51 21 -76.5t82 -25.5q13 0 25 1t18 1v-215q-71 -14 -113 -14q-137 0 -214 69.5
t-77 216.5z" />
    <glyph glyph-name=".notdef" horiz-adv-x="748" 
d="M68 0v1365h544v-1365h-544zM136 68h408v1229h-408v-1229z" />
    <glyph glyph-name="glyph1" horiz-adv-x="0" 
 />
    <glyph glyph-name="glyph2" horiz-adv-x="682" 
 />
    <glyph glyph-name="space" unicode=" " horiz-adv-x="428" 
 />
    <glyph glyph-name="exclam" unicode="!" horiz-adv-x="679" 
d="M242 0v272h270v-272h-270zM242 997v455h268v-455l-57 -563h-154z" />
    <glyph glyph-name="quotedbl" unicode="&#x22;" horiz-adv-x="1075" 
d="M168 1153v301h272v-301l-51 -350h-170zM635 1153v301h272v-301l-51 -350h-170z" />
    <glyph glyph-name="numbersign" unicode="#" horiz-adv-x="1552" 
d="M129 377v201h279l36 268h-249v203h278l55 374h213l-53 -374h283l55 374h213l-53 -374h248v-203h-279l-35 -268h248v-201h-278l-54 -377h-215l53 377h-282l-53 -377h-215l53 377h-248zM623 578h282l37 268h-283z" />
    <glyph glyph-name="dollar" unicode="$" 
d="M39 467h252q3 -102 76 -172q65 -62 165 -72v406q-69 8 -100 14q-167 26 -261.5 127.5t-94.5 257.5q0 148 125 270q130 130 331 148v190h150v-194q179 -22 293 -127q135 -125 141 -293h-252q-3 75 -63 139q-41 44 -119 64v-375q12 -2 35 -5t35 -5q167 -26 274 -128.5
t107 -267.5q0 -166 -117 -286q-125 -128 -334 -150v-186h-150v184q-207 16 -348 146q-65 58 -104.5 140t-40.5 175zM326 1034q0 -129 145 -153q49 -10 61 -11v361q-94 -14 -151 -68q-55 -52 -55 -129zM682 225q93 16 145 68q58 58 58 141q0 135 -168 166l-35 6v-381z" />
    <glyph glyph-name="percent" unicode="%" horiz-adv-x="1851" 
d="M92 1079q0 152 64 246q101 148 288 148q188 0 289 -148q64 -94 64 -246q0 -151 -64 -245q-101 -148 -289 -148q-187 0 -288 148q-64 94 -64 245zM295 1079q0 -47 6 -82t21 -67.5t45.5 -50t76.5 -17.5t77 17.5t46 50t21 68t6 81.5t-6 81.5t-21 68t-46 50t-77 17.5
t-76.5 -17.5t-45.5 -50t-21 -67.5t-6 -82zM332 74l1034 1407l156 -109l-1039 -1413zM1044 373q0 151 64 245q101 148 289 148t289 -148q63 -93 63 -245q0 -153 -63 -246q-101 -147 -289 -147t-289 147q-64 94 -64 246zM1247 373q0 -46 6 -81.5t21 -68t46 -50t77 -17.5
t76.5 17.5t45.5 50t21 67.5t6 82t-6 82t-21 67.5t-45.5 50t-76.5 17.5t-77 -17.5t-46 -50t-21 -68t-6 -81.5z" />
    <glyph glyph-name="ampersand" unicode="&#x26;" horiz-adv-x="1519" 
d="M135 401q0 243 258 400q-81 88 -118 155t-37 160q0 167 114 267t283 100q107 0 197.5 -41.5t147 -124.5t56.5 -193q0 -68 -19.5 -126t-58 -105t-85.5 -84t-111 -74l252 -274q30 53 37 178q4 66 4 178h375v-203h-168q-11 -204 -88 -325q47 -50 135.5 -147t132.5 -144h-312
l-102 115q-174 -152 -412 -152q-130 0 -238.5 52.5t-175.5 154t-67 233.5zM371 412q0 -107 75.5 -167.5t184.5 -60.5q162 0 243 90q-57 62 -165.5 184t-165.5 183q-45 -26 -69 -43.5t-51.5 -45t-39.5 -62t-12 -78.5zM473 1120q0 -20 3.5 -38t14 -37.5t17 -32t24.5 -32.5
t24.5 -27.5t28 -29.5t25.5 -26q93 50 124 78q63 57 63 139q0 73 -45.5 115.5t-116.5 42.5q-67 0 -114.5 -40.5t-47.5 -111.5z" />
    <glyph glyph-name="quotesingle" unicode="'" horiz-adv-x="567" 
d="M147 1153v301h273v-301l-51 -350h-170z" />
    <glyph glyph-name="parenleft" unicode="(" horiz-adv-x="671" 
d="M133 649q0 290 93 534t280 459l145 -108q-109 -147 -173 -273t-98 -276.5t-34 -335.5t34 -335.5t98 -276.5t173 -273l-145 -108q-187 215 -280 459t-93 534z" />
    <glyph glyph-name="parenright" unicode=")" horiz-adv-x="671" 
d="M20 -236q164 220 235 417t71 468t-71 468t-235 417l146 108q187 -215 280 -459t93 -534t-93 -534t-280 -459z" />
    <glyph glyph-name="asterisk" unicode="*" horiz-adv-x="1075" 
d="M82 1036l68 217l296 -123l-20 330l221 -2l-22 -330l299 125l69 -217l-309 -82l205 -256l-178 -133l-172 285l-174 -287l-179 133l205 258z" />
    <glyph glyph-name="plus" unicode="+" horiz-adv-x="1390" 
d="M113 522v219h467v480h231v-480h467v-219h-467v-512h-231v512h-467z" />
    <glyph glyph-name="comma" unicode="," horiz-adv-x="598" 
d="M143 0v319h312v-294q0 -142 -49.5 -230.5t-178.5 -142.5l-71 119q85 39 113 89.5t28 139.5h-154z" />
    <glyph glyph-name="hyphen" unicode="-" horiz-adv-x="948" 
d="M123 516v229h702v-229h-702z" />
    <glyph glyph-name="period" unicode="." horiz-adv-x="600" 
d="M143 0v319h312v-319h-312z" />
    <glyph glyph-name="slash" unicode="/" horiz-adv-x="796" 
d="M0 -27l629 1506h188l-629 -1506h-188z" />
    <glyph glyph-name="zero" unicode="0" 
d="M82 713q0 98 6.5 176t23 162t52 153.5t88.5 120.5q131 127 332 127q200 0 331 -127q53 -51 88.5 -120.5t52 -153.5t23 -162t6.5 -176t-6.5 -176.5t-23 -162.5t-52 -153.5t-88.5 -120.5q-131 -127 -331 -127q-201 0 -332 127q-53 51 -88.5 120.5t-52 153.5t-23 162.5
t-6.5 176.5zM342 713q0 -167 4 -214q21 -233 160 -277q35 -11 78 -11q51 0 90.5 15.5t64.5 43t43.5 64t26 78.5t12.5 87t4 88.5t0 84.5v41v41q2 35 0.5 73.5t-3 77.5t-8.5 77t-17 72t-28.5 63.5t-43 51t-60.5 33.5t-81 12q-51 0 -91 -16t-65 -43t-43 -64t-26 -78.5
t-13 -86.5t-4 -89t0 -84v-40z" />
    <glyph glyph-name="one" unicode="1" 
d="M238 893v278l350 252h219v-1423h-256v1120z" />
    <glyph glyph-name="two" unicode="2" 
d="M123 1022q2 193 121.5 311.5t333.5 118.5q188 0 313 -109t125 -292q0 -162 -156 -349l-393 -471h569v-231h-909v205l555 661q74 86 74 183q0 78 -48 128t-133 50q-88 0 -139 -58.5t-51 -146.5h-262z" />
    <glyph glyph-name="three" unicode="3" 
d="M88 412h256q7 -102 70 -157.5t159 -55.5q98 0 162 57t64 156q0 105 -71.5 160t-178.5 55h-107v223h107q219 0 219 190q0 78 -55.5 132.5t-139.5 54.5q-99 0 -158.5 -49.5t-60.5 -143.5h-258q2 130 67.5 226.5t171.5 144t238 47.5q197 0 326 -111.5t129 -293.5
q0 -100 -55.5 -186.5t-149.5 -119.5q107 -30 170.5 -124.5t63.5 -208.5q0 -104 -38 -187.5t-104.5 -137t-154.5 -82t-189 -28.5q-201 0 -339 121.5t-144 317.5z" />
    <glyph glyph-name="four" unicode="4" 
d="M55 287v241l523 895h278l-530 -905h364v334h256v-334h180v-231h-180v-287h-256v287h-635z" />
    <glyph glyph-name="five" unicode="5" 
d="M102 416h256q4 -103 70 -160t170 -57q83 0 136.5 38.5t75 98.5t21.5 141q0 119 -57.5 188.5t-175.5 69.5q-64 0 -122 -30.5t-91 -83.5h-252l31 802h864v-229h-643l-16 -326q101 93 282 93q140 0 241 -63.5t150.5 -170.5t49.5 -244q0 -231 -131.5 -371.5t-364.5 -140.5
q-212 0 -348 122t-146 323z" />
    <glyph glyph-name="six" unicode="6" 
d="M102 688q0 94 4.5 166t19.5 161t48.5 163.5t85.5 130.5q65 68 147 105.5t201 37.5q202 0 326 -117q58 -55 89.5 -126t31.5 -136h-258q-6 66 -49 109q-48 51 -152 51q-81 0 -141 -57q-99 -91 -99 -326q44 53 120.5 78.5t150.5 25.5q225 0 347 -131.5t122 -353.5
q0 -142 -54 -252.5t-166.5 -177t-269.5 -66.5q-196 0 -321.5 124.5t-159.5 324.5q-23 132 -23 266zM381 479q0 -123 57.5 -199.5t167.5 -76.5q113 0 171.5 74t58.5 202q0 116 -60 191t-174 75q-101 0 -161 -75.5t-60 -190.5z" />
    <glyph glyph-name="seven" unicode="7" 
d="M96 1194v229h981v-204l-555 -1219h-276l557 1194h-707z" />
    <glyph glyph-name="eight" unicode="8" 
d="M92 399q0 109 54 201.5t153 138.5q-78 43 -128 130t-50 178q0 98 37.5 176t101.5 127.5t147 75.5t177 26t177 -26t147 -75.5t101.5 -127.5t37.5 -176q0 -91 -50.5 -178t-128.5 -130q99 -46 153 -138.5t54 -201.5q0 -100 -40.5 -182.5t-109 -135.5t-156.5 -81.5
t-185 -28.5t-185 28.5t-157 81.5t-109.5 135.5t-40.5 182.5zM350 416q0 -98 64.5 -157.5t169.5 -59.5t169 59.5t64 157.5q0 92 -61.5 151.5t-171.5 59.5t-172 -60t-62 -151zM379 1042q0 -82 54 -136t151 -54t150.5 54t53.5 136q0 81 -53 133t-151 52q-99 0 -152 -51.5
t-53 -133.5z" />
    <glyph glyph-name="nine" unicode="9" 
d="M76 956q0 142 53.5 252.5t166 177t269.5 66.5q196 0 322 -124t160 -324q22 -127 22 -267q0 -94 -4.5 -166t-19.5 -160.5t-48.5 -163t-85.5 -130.5q-65 -69 -147 -106.5t-201 -37.5q-201 0 -325 117q-58 55 -89.5 126t-31.5 136h258q6 -65 49 -108q48 -51 151 -51
q82 0 142 57q98 90 98 325q-44 -53 -120 -78.5t-150 -25.5q-225 0 -347 131.5t-122 353.5zM336 946q0 -117 60 -191.5t173 -74.5q101 0 161.5 75.5t60.5 190.5q0 123 -58 200t-168 77q-113 0 -171 -74.5t-58 -202.5z" />
    <glyph glyph-name="colon" unicode=":" horiz-adv-x="657" 
d="M193 0v309h309v-309h-309zM193 756v309h309v-309h-309z" />
    <glyph glyph-name="semicolon" unicode=";" horiz-adv-x="657" 
d="M193 0v309h309v-284q0 -142 -48.5 -229.5t-177.5 -141.5l-71 119q82 38 111.5 89t29.5 138h-153zM193 756v309h309v-309h-309z" />
    <glyph glyph-name="less" unicode="&#x3c;" horiz-adv-x="954" 
d="M61 662l660 -662l141 139l-520 520l520 519l-143 143z" />
    <glyph glyph-name="equal" unicode="=" horiz-adv-x="1413" 
d="M184 264v203h1045v-203h-1045zM184 672v200h1045v-200h-1045z" />
    <glyph glyph-name="greater" unicode="&#x3e;" horiz-adv-x="954" 
d="M92 139l520 520l-520 519l144 143l657 -659l-660 -662z" />
    <glyph glyph-name="question" unicode="?" horiz-adv-x="1069" 
d="M66 1049q0 105 38.5 189t105.5 137.5t155.5 81.5t191.5 28q199 0 327 -115.5t128 -286.5q0 -187 -162 -325q-16 -14 -50 -41t-48.5 -40t-37.5 -38t-33 -46t-18 -53t-8 -69v-57h-254q0 144 11 198q11 51 31 93t49 74t53.5 54t62 52t58.5 49q79 71 79 147q0 72 -53 122
t-145 50q-99 0 -158 -53t-59 -151h-264zM385 0v287h285v-287h-285z" />
    <glyph glyph-name="at" unicode="@" horiz-adv-x="1898" 
d="M143 662q0 243 109.5 429t306.5 287t451 101q162 0 302.5 -44.5t247.5 -129t168.5 -218.5t61.5 -301q0 -74 -15.5 -149t-50 -148.5t-84.5 -129.5t-124.5 -91t-163.5 -35q-75 0 -126.5 31.5t-80.5 110.5q-38 -68 -102 -102.5t-140 -34.5q-84 0 -149 33t-104 89.5
t-59 126.5t-20 150q0 116 38.5 210.5t120.5 155t196 60.5q68 0 128 -35t79 -96l28 108h189l-37 -520q-3 -45 11 -70.5t44 -25.5q56 0 104.5 53.5t71.5 122.5q27 85 27 182q0 241 -152 370.5t-407 129.5q-296 0 -469.5 -175t-173.5 -462q0 -127 42 -237.5t117 -191t185 -127
t241 -46.5q286 0 506 78v-197q-222 -82 -508 -82q-183 0 -336 62.5t-256 171.5t-160 260t-57 326zM797 637q0 -90 36 -149.5t109 -59.5q48 0 83.5 20t55 56t28.5 79t9 95q0 203 -153 203q-83 0 -125.5 -72t-42.5 -172z" />
    <glyph glyph-name="A" unicode="A" horiz-adv-x="1308" 
d="M0 0l510 1452h289l510 -1452h-277l-94 279h-578l-94 -279h-266zM442 516h414l-207 612z" />
    <glyph glyph-name="B" unicode="B" horiz-adv-x="1359" 
d="M170 -2v1454h578q211 0 335 -80q79 -52 123.5 -136.5t44.5 -178.5q0 -97 -45.5 -182.5t-132.5 -124.5q100 -46 154.5 -135t54.5 -193q0 -213 -147 -326q-77 -59 -170 -78.5t-217 -19.5h-578zM432 236h326q49 0 92.5 9.5t81.5 31t60 60t22 91.5q0 110 -67.5 160.5
t-180.5 50.5h-334v-403zM432 860h332q219 0 219 180q0 97 -63 141t-162 44h-326v-365z" />
    <glyph glyph-name="C" unicode="C" horiz-adv-x="1286" 
d="M82 725q0 206 35.5 343.5t144.5 246.5q164 164 412 164q119 0 227 -43t189 -125q119 -122 139 -316h-271q-8 85 -65 154q-72 90 -219 90q-133 0 -223 -96q-35 -37 -57.5 -87t-31 -114.5t-10.5 -106.5t-2 -110t2 -110t10.5 -106.5t31 -114.5t57.5 -87q90 -96 223 -96
q68 0 126 24t93 68q56 68 65 160h271q-21 -197 -139 -318q-81 -83 -189.5 -127.5t-226.5 -44.5q-250 0 -412 162q-109 109 -144.5 246.5t-35.5 343.5z" />
    <glyph glyph-name="D" unicode="D" horiz-adv-x="1400" 
d="M170 0v1452h565q124 0 230 -40.5t178 -115.5q71 -72 110.5 -174t49.5 -189.5t10 -205.5t-10 -206t-49.5 -190.5t-110.5 -174.5q-72 -75 -178 -115.5t-230 -40.5h-565zM434 238h301q124 0 205 81q36 36 59 85t31.5 110.5t11 104t2.5 108.5t-2.5 108t-11 103.5t-31.5 110
t-59 84.5q-81 81 -205 81h-301v-976z" />
    <glyph glyph-name="E" unicode="E" horiz-adv-x="1286" 
d="M170 0v1452h1034v-240h-770v-338h678v-237h-678v-397h770v-240h-1034z" />
    <glyph glyph-name="F" unicode="F" horiz-adv-x="1204" 
d="M170 0v1452h1004v-240h-740v-389h660v-239h-660v-584h-264z" />
    <glyph glyph-name="G" unicode="G" horiz-adv-x="1400" 
d="M86 725q0 199 39 336.5t149 247.5q81 81 197 125.5t236 44.5q130 0 242.5 -44.5t187.5 -121.5q122 -126 133 -293h-271q-4 63 -63 133q-76 88 -231 88q-64 0 -130 -26.5t-108 -71.5q-113 -118 -113 -418q0 -304 115 -424q41 -44 105.5 -68t130.5 -24q136 0 217 84
q55 58 74.5 124t19.5 158h-346v220h602v-795h-170l-31 160q-36 -71 -136.5 -128.5t-227.5 -58.5h-10q-269 0 -423 162q-107 111 -147.5 253t-40.5 337z" />
    <glyph glyph-name="H" unicode="H" horiz-adv-x="1464" 
d="M170 0v1452h264v-567h596v567h264v-1452h-264v633h-596v-633h-264z" />
    <glyph glyph-name="I" unicode="I" horiz-adv-x="608" 
d="M170 0v1452h268v-1452h-268z" />
    <glyph glyph-name="J" unicode="J" horiz-adv-x="1005" 
d="M0 455h256q0 -137 53 -195q50 -53 127 -53q87 0 131.5 52t44.5 144v1049h265v-1028q0 -208 -117 -330.5t-324 -122.5q-193 0 -309 119q-127 130 -127 365z" />
    <glyph glyph-name="K" unicode="K" horiz-adv-x="1388" 
d="M170 0v1452h264v-670l580 670h321l-467 -549l521 -903h-312l-393 686l-250 -293v-393h-264z" />
    <glyph glyph-name="L" unicode="L" horiz-adv-x="1126" 
d="M170 0v1452h264v-1202h674v-250h-938z" />
    <glyph glyph-name="M" unicode="M" horiz-adv-x="1798" 
d="M170 0v1452h356l381 -1034l383 1034h338v-1452h-256v1036l-377 -1016h-194l-375 1029v-1049h-256z" />
    <glyph glyph-name="N" unicode="N" horiz-adv-x="1501" 
d="M170 0v1452h281l620 -983v983h260v-1452h-272l-629 997v-997h-260z" />
    <glyph glyph-name="O" unicode="O" horiz-adv-x="1376" 
d="M86 725q0 203 37 341.5t147 248.5q81 81 189.5 122.5t228.5 41.5t228.5 -41.5t189.5 -122.5q110 -110 147 -248.5t37 -341.5q0 -202 -37 -340t-147 -248q-81 -81 -189.5 -122.5t-228.5 -41.5t-228.5 41.5t-189.5 122.5q-110 110 -147 248t-37 340zM354 725
q0 -64 2.5 -109.5t12 -107t32.5 -112t58 -87.5q42 -45 103.5 -70.5t125.5 -25.5t126 25.5t104 70.5q35 37 58 87.5t32 112.5t11.5 106.5t2.5 109.5t-2.5 110t-11.5 107.5t-32 113t-58 87.5q-42 45 -104 70.5t-126 25.5t-125.5 -25.5t-103.5 -70.5q-35 -37 -58 -88
t-32.5 -113t-12 -107.5t-2.5 -109.5z" />
    <glyph glyph-name="P" unicode="P" horiz-adv-x="1277" 
d="M170 0v1452h569q246 0 379 -125.5t133 -339.5t-133.5 -340.5t-378.5 -126.5h-307v-520h-262zM432 752h297q128 0 192 62.5t64 170.5q0 109 -64 172.5t-192 63.5h-297v-469z" />
    <glyph glyph-name="Q" unicode="Q" horiz-adv-x="1376" 
d="M86 725q0 203 37 341.5t147 248.5q81 81 189.5 122.5t228.5 41.5t228.5 -41.5t189.5 -122.5q110 -110 147 -248.5t37 -341.5q0 -202 -37 -339t-145 -247l127 -159l-158 -123l-135 168q-119 -52 -254 -52q-120 0 -228.5 41.5t-189.5 122.5q-110 110 -147 248t-37 340z
M354 725q0 -64 2.5 -109.5t12 -107t32.5 -112t58 -87.5q42 -45 103.5 -70.5t125.5 -25.5q51 0 94 14l-155 195l159 125l160 -203q26 38 42 85.5t23 102.5t9 96t2 97q0 65 -2.5 110t-11.5 107.5t-32 113t-58 87.5q-42 45 -104 70.5t-126 25.5t-125.5 -25.5t-103.5 -70.5
q-35 -37 -58 -88t-32.5 -113t-12 -107.5t-2.5 -109.5z" />
    <glyph glyph-name="R" unicode="R" horiz-adv-x="1349" 
d="M170 0v1452h612q125 0 224 -37.5t158.5 -101t90.5 -143t31 -169.5q0 -145 -72.5 -253.5t-193.5 -153.5l266 -594h-287l-241 549h-322v-549h-266zM434 786h352q113 0 174.5 56t61.5 159q0 91 -65.5 155.5t-174.5 64.5h-348v-435z" />
    <glyph glyph-name="S" unicode="S" horiz-adv-x="1294" 
d="M61 461h271q0 -102 76 -178q78 -78 243 -78q177 0 252 78q29 31 43.5 61t14.5 78q0 74 -49 116.5t-124 55.5q-52 9 -164 20.5t-157 18.5q-162 27 -265.5 130t-103.5 275q0 160 127 287q73 71 186.5 112.5t239.5 41.5q119 0 226 -37t180 -105q144 -137 147 -309h-270
q-3 79 -64 143q-34 35 -97 56.5t-124 21.5q-158 0 -235 -80q-49 -52 -49 -122q0 -68 39.5 -107.5t107.5 -50.5q52 -8 167 -20.5t148 -16.5q173 -25 286.5 -134t113.5 -286q0 -182 -121 -303q-156 -156 -459 -156q-270 0 -434 150q-68 62 -110 150.5t-42 187.5z" />
    <glyph glyph-name="T" unicode="T" horiz-adv-x="1148" 
d="M12 1206v246h1125v-246h-430v-1206h-265v1206h-430z" />
    <glyph glyph-name="U" unicode="U" horiz-adv-x="1396" 
d="M129 557v895h264v-891q0 -162 76 -255t229 -93t229.5 93t76.5 255v891h264v-895q0 -175 -63.5 -305t-193 -204.5t-313.5 -74.5t-313.5 74.5t-192.5 204.5t-63 305z" />
    <glyph glyph-name="V" unicode="V" horiz-adv-x="1249" 
d="M0 1452h281l352 -1108l350 1108h266l-477 -1452h-291z" />
    <glyph glyph-name="W" unicode="W" horiz-adv-x="1785" 
d="M35 1452h252l202 -1010l299 988h222l293 -988l206 1010h242l-289 -1452h-264l-303 1001l-303 -1001h-264z" />
    <glyph glyph-name="X" unicode="X" horiz-adv-x="1234" 
d="M4 0l457 739l-453 713h289l326 -508l315 508h287l-447 -715l453 -737h-291l-326 528l-325 -528h-285z" />
    <glyph glyph-name="Y" unicode="Y" horiz-adv-x="1277" 
d="M0 1452h287l358 -627l359 627h274l-508 -895v-557h-266v557z" />
    <glyph glyph-name="Z" unicode="Z" horiz-adv-x="1259" 
d="M59 0v260l801 952h-788v240h1114v-260l-795 -952h805v-240h-1137z" />
    <glyph glyph-name="bracketleft" unicode="[" horiz-adv-x="743" 
d="M213 -303v1900h479v-174h-286v-1552h286v-174h-479z" />
    <glyph glyph-name="backslash" unicode="\" horiz-adv-x="796" 
d="M-20 1479h188l629 -1506h-189z" />
    <glyph glyph-name="bracketright" unicode="]" horiz-adv-x="743" 
d="M51 -129h287v1552h-287v174h479v-1900h-479v174z" />
    <glyph glyph-name="asciicircum" unicode="^" horiz-adv-x="1101" 
d="M102 827l349 652h202l346 -652h-282l-170 334l-172 -334h-273z" />
    <glyph glyph-name="underscore" unicode="_" horiz-adv-x="1202" 
d="M49 -4h1104v-180h-1104v180z" />
    <glyph glyph-name="grave" unicode="`" horiz-adv-x="522" 
d="M6 1389l115 186l377 -283l-82 -133z" />
    <glyph glyph-name="a" unicode="a" horiz-adv-x="1150" 
d="M72 307q0 147 101 235t259 99l313 23v65q0 82 -39 125t-141 43q-89 0 -139.5 -39.5t-54.5 -112.5h-248q10 172 131.5 259.5t310.5 87.5q317 0 400 -218q30 -76 30 -215v-395q0 -37 14 -52t46 -15l32 4v-189q-28 -12 -40 -16t-34.5 -8t-51.5 -4q-80 0 -127.5 42.5
t-53.5 106.5q-39 -68 -126.5 -114t-196.5 -46q-181 0 -283 97.5t-102 236.5zM322 313q0 -60 44.5 -96.5t106.5 -36.5q123 0 197.5 64t74.5 180v49l-270 -20q-63 -5 -108 -42t-45 -98z" />
    <glyph glyph-name="b" unicode="b" horiz-adv-x="1230" 
d="M160 0v1479h256v-492q38 46 112 75.5t166 29.5q153 0 260 -86q191 -156 191 -476q0 -308 -191 -464q-113 -91 -258 -91q-93 0 -173.5 36t-125.5 106l-16 -117h-221zM403 535q0 -206 93 -291q57 -54 149 -54q106 0 172 84q68 90 68 261q0 168 -68 258q-66 84 -172 84
q-58 0 -102 -21t-70 -54.5t-42.5 -80t-22 -91t-5.5 -95.5z" />
    <glyph glyph-name="c" unicode="c" horiz-adv-x="1087" 
d="M86 535q0 243 117 389q60 73 157.5 120.5t212.5 47.5t210 -47t155 -121q76 -97 82 -232h-252q-3 51 -31 99q-52 79 -164 79q-94 0 -155 -65q-72 -80 -72 -270q0 -189 72 -269q63 -67 155 -67q111 0 164 80q28 48 31 98h252q-6 -135 -82 -232q-60 -74 -155 -121t-210 -47
t-212.5 47.5t-157.5 120.5q-117 146 -117 390z" />
    <glyph glyph-name="d" unicode="d" horiz-adv-x="1230" 
d="M86 530q0 320 190 476q107 86 261 86q96 0 169 -28.5t109 -72.5v488h256v-1479h-221l-16 117q-45 -70 -125.5 -106t-173.5 -36q-148 0 -261 91q-188 154 -188 464zM346 535q0 -171 68 -261q66 -84 172 -84q58 0 102 21.5t70 55t42 81t21.5 92t5.5 95.5t-5.5 95.5
t-21.5 91t-42 80t-70 54.5t-102 21q-106 0 -172 -84q-68 -90 -68 -258z" />
    <glyph glyph-name="e" unicode="e" horiz-adv-x="1140" 
d="M86 530q0 269 154 426q133 136 340 136q122 0 223.5 -50t165.5 -147q92 -138 92 -342v-29q-2 -48 -2 -71h-713v-9q0 -124 78 -200q70 -66 158 -66q104 0 155 51q38 38 51 90h246q-4 -45 -30.5 -101t-59.5 -95q-127 -150 -358 -150q-198 0 -336 131q-164 158 -164 426z
M344 639h461q-3 117 -66 186q-59 62 -161 62q-117 0 -179 -82q-52 -66 -55 -166z" />
    <glyph glyph-name="f" unicode="f" horiz-adv-x="776" 
d="M33 854v211h180v102q0 151 96.5 243.5t265.5 92.5q91 0 201 -22v-205q-85 16 -168 16q-67 0 -103 -35t-36 -94v-98h285v-211h-285v-854h-256v854h-180z" />
    <glyph glyph-name="g" unicode="g" horiz-adv-x="1128" 
d="M78 -176q0 70 33.5 128.5t93.5 88.5q-50 27 -78.5 77.5t-28.5 104.5q0 137 127 215q-106 106 -106 262q0 123 59.5 213.5t157 134.5t219.5 44q129 0 242 -66q33 67 90 100t127 33q53 0 69 -4v-199q-3 0 -10 1t-10 1q-108 0 -129 -67q55 -90 55 -193q0 -118 -61 -207.5
t-159 -134.5t-214 -45q-87 0 -172 29q-53 -30 -53 -76q0 -78 116 -78h177q73 0 118.5 -2.5t113.5 -19.5t114 -49q129 -88 129 -256q0 -81 -31 -144.5t-81 -103t-119 -64.5t-138 -35t-145 -10q-118 0 -210 17.5t-167 70.5q-129 90 -129 234zM305 -147q0 -148 268 -148
q27 0 48 0.5t52 4t54.5 9.5t49 17t42 26t27 38.5t10.5 52.5q0 27 -9.5 48.5t-23 35t-37.5 23t-43 14t-49.5 7t-46.5 3t-45 0.5h-201q-43 -12 -69.5 -47t-26.5 -84zM367 700q0 -88 50.5 -142t137.5 -54t137.5 54t50.5 142t-51 143.5t-137 55.5t-137 -55.5t-51 -143.5z" />
    <glyph glyph-name="h" unicode="h" horiz-adv-x="1210" 
d="M160 0v1479h256v-527q44 66 124.5 103t166.5 37q167 0 263.5 -106.5t96.5 -274.5v-711h-256v657q0 98 -39.5 148.5t-136.5 50.5q-72 0 -124 -47.5t-73.5 -112.5t-21.5 -135v-561h-256z" />
    <glyph glyph-name="i" unicode="i" horiz-adv-x="585" 
d="M156 1212v265h274v-265h-274zM164 0v1065h260v-1065h-260z" />
    <glyph glyph-name="j" unicode="j" horiz-adv-x="606" 
d="M-61 -201q114 -12 124 -12q59 0 91 30t32 85v1163h258v-1212q0 -138 -79 -217.5t-220 -79.5q-57 0 -90 4q-57 7 -116 22v217zM176 1217v264h275v-264h-275z" />
    <glyph glyph-name="k" unicode="k" horiz-adv-x="1181" 
d="M160 0v1479h256v-846l403 432h322l-381 -412l422 -653h-297l-299 465l-170 -184v-281h-256z" />
    <glyph glyph-name="l" unicode="l" horiz-adv-x="618" 
d="M154 274v1207h258v-1164q0 -52 20.5 -77t81.5 -25q13 0 25 1t18 1v-215q-71 -14 -113 -14q-137 0 -213.5 69.5t-76.5 216.5z" />
    <glyph glyph-name="m" unicode="m" horiz-adv-x="1812" 
d="M160 0v1065h213l20 -141q46 77 123.5 122.5t179.5 45.5q220 0 305 -174q47 83 131 128.5t191 45.5q166 0 256 -101.5t90 -271.5v-719h-254v662q0 105 -36 155.5t-128 50.5q-69 0 -118 -45t-70 -107.5t-21 -133.5v-582h-254v662q0 105 -35.5 155.5t-127.5 50.5
q-69 0 -118.5 -45t-71 -108t-21.5 -133v-582h-254z" />
    <glyph glyph-name="n" unicode="n" horiz-adv-x="1210" 
d="M160 0v1065h215l18 -137q45 81 130.5 122.5t183.5 41.5q167 0 263.5 -106t96.5 -275v-711h-256v653q0 100 -39.5 150.5t-136.5 50.5q-123 0 -184 -135q-17 -39 -25.5 -96.5t-9 -88.5t-0.5 -100v-434h-256z" />
    <glyph glyph-name="o" unicode="o" 
d="M86 532q0 130 31 222.5t94 171.5q59 72 158 119t215 47t214.5 -47t157.5 -119q63 -79 94 -171.5t31 -222.5t-31 -222t-94 -171q-59 -72 -157.5 -119t-214.5 -47t-215 47t-158 119q-63 79 -94 171t-31 222zM346 532q0 -183 76 -268q63 -67 162 -67q98 0 161 67
q76 85 76 268q0 184 -76 269q-63 67 -161 67q-99 0 -162 -67q-76 -85 -76 -269z" />
    <glyph glyph-name="p" unicode="p" horiz-adv-x="1230" 
d="M160 -408v1473h221l16 -117q45 70 125.5 106t173.5 36q145 0 258 -91q191 -156 191 -464q0 -320 -191 -476q-107 -86 -260 -86q-92 0 -166 29.5t-112 75.5v-486h-256zM403 530q0 -51 5.5 -95.5t22 -91t42.5 -80t70 -54.5t102 -21q106 0 172 84q68 90 68 258
q0 171 -68 261q-65 83 -172 83q-72 0 -122 -31t-75 -84.5t-35 -108.5t-10 -120z" />
    <glyph glyph-name="q" unicode="q" horiz-adv-x="1230" 
d="M86 535q0 308 190 464q113 91 259 91q93 0 173.5 -36t125.5 -106l16 117h221v-1473h-256v484q-38 -46 -112 -74.5t-166 -28.5q-154 0 -261 86q-190 156 -190 476zM346 530q0 -168 68 -258q66 -84 172 -84q58 0 102 21t70 54.5t42 80t21.5 91t5.5 95.5t-5.5 95.5
t-21.5 91.5t-42 80.5t-70 55t-102 21.5q-107 0 -172 -83q-68 -90 -68 -261z" />
    <glyph glyph-name="r" unicode="r" horiz-adv-x="808" 
d="M160 0v1065h217l22 -160q35 87 117.5 130.5t183.5 43.5q40 0 80 -6v-246q-53 11 -88 11q-131 0 -202.5 -83.5t-71.5 -217.5v-537h-258z" />
    <glyph glyph-name="s" unicode="s" horiz-adv-x="1067" 
d="M74 344h239q0 -35 16.5 -69.5t41.5 -55.5q58 -47 161 -47q38 0 71.5 5t69 18t56.5 42t21 70q0 46 -28.5 75.5t-78.5 37.5q-22 3 -131 16t-164 25q-108 23 -176 102.5t-68 181.5q0 145 109 240q123 107 324 107q99 0 187.5 -32t145.5 -93q95 -102 95 -219h-244
q0 54 -43 100q-49 49 -139 49q-72 0 -111 -16q-36 -14 -59 -44t-23 -69q0 -89 123 -106q136 -17 227 -31q131 -21 211 -100t80 -201q0 -142 -92 -234q-123 -123 -365 -123q-215 0 -344 123q-49 48 -80.5 112.5t-31.5 135.5z" />
    <glyph glyph-name="t" unicode="t" horiz-adv-x="819" 
d="M27 854v211h194v270l256 64v-334h268v-211h-268v-518q0 -61 28.5 -89t90.5 -28q78 0 166 10v-215q-112 -28 -219 -28q-159 0 -240.5 85.5t-81.5 241.5v541h-194z" />
    <glyph glyph-name="u" unicode="u" horiz-adv-x="1208" 
d="M143 354v711h256v-653q0 -203 185 -203q78 0 131 53q78 73 78 240v563h256v-1065h-213l-19 139q-38 -77 -120.5 -121.5t-184.5 -44.5q-169 0 -269 104.5t-100 276.5z" />
    <glyph glyph-name="v" unicode="v" horiz-adv-x="1052" 
d="M0 1065h270l267 -750l251 750h265l-385 -1065h-273z" />
    <glyph glyph-name="w" unicode="w" horiz-adv-x="1579" 
d="M47 1065h248l170 -698l223 688h211l225 -686l164 696h244l-260 -1065h-238l-241 719l-238 -719h-238z" />
    <glyph glyph-name="x" unicode="x" horiz-adv-x="1056" 
d="M6 1065h295l238 -344l231 344h281l-367 -524l365 -541h-289l-238 356l-233 -356h-281l373 543z" />
    <glyph glyph-name="y" unicode="y" horiz-adv-x="1085" 
d="M0 1065h281l278 -770l266 770h260l-469 -1247q-22 -57 -48 -101t-64.5 -83.5t-93 -61t-121.5 -21.5q-91 0 -197 27v213q102 -18 144 -18q88 0 122 80l62 149z" />
    <glyph glyph-name="z" unicode="z" horiz-adv-x="1038" 
d="M90 0v225l563 629h-559v211h860v-231l-557 -623h561v-211h-868z" />
    <glyph glyph-name="braceleft" unicode="{" horiz-adv-x="776" 
d="M92 553v190q125 11 183.5 65.5t58.5 188.5q0 31 -1 127t-1 127q0 70 20 131t59 110t105 77t152 28h108v-174h-69q-97 0 -139 -47t-42 -139v-315q-2 -95 -59.5 -171t-161.5 -98v-6q103 -22 161 -100.5t60 -173.5v-316q0 -92 42 -139t139 -47h69v-174h-108q-86 0 -152 28
t-105 77t-59 110t-20 131q0 30 1 126.5t1 127.5q0 131 -58 189t-184 67z" />
    <glyph glyph-name="bar" unicode="|" horiz-adv-x="548" 
d="M174 -303v1900h201v-1900h-201z" />
    <glyph glyph-name="braceright" unicode="}" horiz-adv-x="776" 
d="M0 -129h70q97 0 138.5 47t41.5 139v316q2 95 60 173.5t161 100.5v6q-104 22 -161.5 98t-59.5 171v315q0 92 -41.5 139t-138.5 47h-70v174h109q86 0 151.5 -28t105 -77t59 -110t19.5 -131q0 -31 -1 -127t-1 -127q0 -134 58.5 -188.5t183.5 -65.5v-190q-126 -9 -184 -67
t-58 -189q0 -31 1 -127.5t1 -126.5q0 -70 -19.5 -131t-59 -110t-105 -77t-151.5 -28h-109v174z" />
    <glyph glyph-name="asciitilde" unicode="~" horiz-adv-x="1398" 
d="M123 621q92 99 179 153.5t196 54.5q66 0 141.5 -30.5t143 -61t114.5 -30.5q105 0 215 114l164 -194q-60 -63 -110 -103.5t-121.5 -71t-147.5 -30.5q-68 0 -145 32t-144 63.5t-112 31.5q-97 0 -211 -123z" />
    <glyph glyph-name="uni00A0" unicode="&#xa0;" horiz-adv-x="1449" 
 />
    <glyph glyph-name="exclamdown" unicode="&#xa1;" horiz-adv-x="679" 
d="M170 37l57 563h154l57 -563v-455h-268v455zM170 758v276h270v-276h-270z" />
    <glyph glyph-name="cent" unicode="&#xa2;" 
d="M145 725q0 253 111 389q49 61 127 106t172 58v180h127v-178q96 -10 174.5 -55t128.5 -111q76 -97 82 -229h-248q-2 48 -31 96q-37 59 -106 76v-664q69 17 106 76q29 48 31 96h248q-6 -132 -82 -229q-50 -66 -128.5 -111t-174.5 -55v-174h-127v178q-94 13 -172.5 57.5
t-126.5 104.5q-111 136 -111 389zM399 725q0 -192 70 -270q38 -42 86 -58v656q-48 -16 -86 -58q-70 -78 -70 -270z" />
    <glyph glyph-name="sterling" unicode="&#xa3;" horiz-adv-x="1177" 
d="M78 0v225q155 0 155 152v266h-153v211h153v186q0 192 113.5 303t306.5 111q177 0 293.5 -106.5t116.5 -282.5h-256q0 73 -40.5 120.5t-113.5 47.5q-80 0 -120.5 -49t-40.5 -131v-199h292v-211h-292v-268q0 -22 -3.5 -43t-11.5 -42.5t-23.5 -36.5t-37.5 -20v-4h309
q83 0 119.5 39.5t36.5 124.5h243q0 -192 -101.5 -292.5t-293.5 -100.5h-651z" />
    <glyph glyph-name="currency" unicode="&#xa4;" horiz-adv-x="1169" 
d="M16 131l162 137q-74 130 -74 252t74 252l-162 129l181 178l137 -153q116 65 254 65q132 0 248 -65l141 153l178 -178l-160 -129q74 -130 74 -252q0 -125 -74 -252l160 -137l-176 -172l-143 156q-119 -68 -248 -68q-130 0 -252 68l-141 -156zM332 520q0 -108 69.5 -184
t186.5 -76q120 0 186 72t66 188q0 111 -68.5 184.5t-183.5 73.5q-125 0 -190.5 -70t-65.5 -188z" />
    <glyph glyph-name="yen" unicode="&#xa5;" horiz-adv-x="1165" 
d="M0 1423h285l305 -555l295 555h280l-338 -608h234v-149h-348v-185h348v-149h-348v-332h-262v332h-326v149h326v185h-326v149h213z" />
    <glyph glyph-name="brokenbar" unicode="&#xa6;" horiz-adv-x="591" 
d="M170 -102v653h252v-653h-252zM170 901v653h252v-653h-252z" />
    <glyph glyph-name="section" unicode="&#xa7;" horiz-adv-x="1124" 
d="M102 600q0 157 179 281q-84 100 -84 227q0 135 96 231q53 54 129 84.5t162 30.5q165 0 277 -100.5t112 -270.5h-225q0 73 -43 121.5t-119 48.5q-71 0 -114.5 -38t-43.5 -103q0 -72 70 -135l399 -342q135 -116 135 -281q0 -160 -176 -282q82 -97 82 -226q0 -139 -94 -233
q-52 -54 -128.5 -83.5t-162.5 -29.5q-166 0 -277.5 100t-111.5 269h223q0 -73 44 -120.5t120 -47.5q71 0 114.5 38t43.5 103q0 70 -72 135l-399 342q-136 117 -136 281zM330 616q0 -80 55 -129l330 -284q92 65 92 135q0 78 -57 129l-328 285q-92 -65 -92 -136z" />
    <glyph glyph-name="dieresis" unicode="&#xa8;" horiz-adv-x="661" 
d="M0 1231v248h240v-248h-240zM422 1231v248h240v-248h-240z" />
    <glyph glyph-name="copyright" unicode="&#xa9;" horiz-adv-x="1716" 
d="M100 725q0 215 98.5 387.5t272 269.5t387.5 97t387.5 -97.5t272 -270t98.5 -386.5q0 -163 -57 -303.5t-157 -239t-241 -155t-303 -56.5q-163 0 -304 56.5t-240.5 155.5t-156.5 239t-57 303zM293 725q0 -253 157 -415.5t408 -162.5q164 0 294 75.5t201.5 207t71.5 295.5
q0 251 -158.5 414.5t-408.5 163.5t-407.5 -163.5t-157.5 -414.5zM483 721q0 172 104 288.5t281 116.5q145 0 242.5 -85t112.5 -218h-209q-8 48 -47.5 82.5t-98.5 34.5q-85 0 -129.5 -64t-44.5 -155q0 -99 45 -160t129 -61q59 0 98.5 34t47.5 82h209q-15 -133 -112.5 -218
t-242.5 -85q-118 0 -207 56.5t-133.5 148t-44.5 203.5z" />
    <glyph glyph-name="ordfeminine" unicode="&#xaa;" horiz-adv-x="972" 
d="M102 860q0 111 75 176t196 74l237 18v50q0 63 -28.5 95t-106.5 32q-67 0 -104.5 -29.5t-40.5 -85.5h-189q9 131 100.5 197.5t233.5 66.5q239 0 301 -166q23 -59 23 -164v-303q0 -27 11 -38t36 -11l24 4v-143q-2 -1 -11.5 -5t-11 -4.5t-9.5 -3.5t-11 -4t-10.5 -2.5t-13 -2
t-13 -1t-16.5 -0.5q-60 0 -96 33t-41 82q-29 -52 -96 -86.5t-150 -34.5q-138 0 -213.5 74.5t-75.5 181.5zM293 862q0 -45 33 -73.5t80 -28.5q94 0 149 49t55 137v37l-202 -16q-48 -3 -81.5 -30.5t-33.5 -74.5z" />
    <glyph glyph-name="guillemotleft" unicode="&#xab;" horiz-adv-x="1202" 
d="M92 610l354 506l150 -106l-234 -398l234 -397l-150 -104zM586 610l354 506l150 -106l-234 -398l234 -397l-150 -104z" />
    <glyph glyph-name="logicalnot" unicode="&#xac;" horiz-adv-x="1361" 
d="M113 514v231h1083l2 -573h-250v342h-835z" />
    <glyph glyph-name="uni00AD" unicode="&#xad;" horiz-adv-x="948" 
d="M123 516v229h702v-229h-702z" />
    <glyph glyph-name="registered" unicode="&#xae;" horiz-adv-x="1716" 
d="M100 725q0 215 98.5 387.5t272 269.5t387.5 97t387.5 -97.5t272 -270t98.5 -386.5q0 -163 -57 -303.5t-157 -239t-241 -155t-303 -56.5q-163 0 -304 56.5t-240.5 155.5t-156.5 239t-57 303zM293 725q0 -253 157 -415.5t408 -162.5q164 0 293.5 75.5t200.5 207t71 295.5
q0 251 -157.5 414.5t-407.5 163.5t-407.5 -163.5t-157.5 -414.5zM584 365v747h297q124 0 203 -66t79 -188q0 -69 -28.5 -125.5t-87.5 -85.5l122 -282h-198l-101 245h-96v-245h-190zM772 780h109q41 0 65.5 22t24.5 62q0 38 -25.5 58t-64.5 20h-109v-162z" />
    <glyph glyph-name="macron" unicode="&#xaf;" horiz-adv-x="624" 
d="M10 1292v205h615v-205h-615z" />
    <glyph glyph-name="degree" unicode="&#xb0;" horiz-adv-x="913" 
d="M102 1137q0 146 95.5 244t255.5 98q157 0 257.5 -97.5t100.5 -244.5q0 -153 -104 -249.5t-254 -96.5q-147 0 -249 99t-102 247zM299 1137q0 -67 44.5 -113.5t109.5 -46.5t111 46.5t46 113.5q0 66 -45.5 110.5t-111.5 44.5q-65 0 -109.5 -44.5t-44.5 -110.5z" />
    <glyph glyph-name="plusminus" unicode="&#xb1;" horiz-adv-x="1245" 
d="M102 0v217h1041v-217h-1041zM102 659v215h404v328h231v-328h406v-215h-406v-327h-231v327h-404z" />
    <glyph glyph-name="uni00B2" unicode="&#xb2;" horiz-adv-x="829" 
d="M113 1188q10 136 88 207t215 71q120 0 202 -67.5t82 -184.5q0 -69 -37 -122t-102 -107l-131 -108h287v-179h-590v150l313 268q2 2 9.5 8.5t9.5 8.5t8.5 8t8.5 8.5t7 8.5t6.5 10t5 10t4.5 11.5t2 12.5t1 15q0 37 -25 60t-63 23q-100 0 -107 -112h-194z" />
    <glyph glyph-name="uni00B3" unicode="&#xb3;" horiz-adv-x="843" 
d="M113 942h180q4 -49 40 -73.5t87 -24.5q49 0 86 20t37 66q0 80 -109 80h-55v149h55q92 0 92 74q0 40 -31 60t-73 20q-114 0 -125 -103h-178q9 116 80 181q84 75 223 75q78 0 146 -27t108 -79q41 -54 41 -117q0 -51 -30 -94.5t-77 -58.5q54 -17 87.5 -64.5t33.5 -103.5
q0 -74 -43 -131q-77 -105 -272 -105q-69 0 -131 23.5t-103 66.5q-60 60 -69 166z" />
    <glyph glyph-name="acute" unicode="&#xb4;" horiz-adv-x="522" 
d="M14 1292l377 283l115 -186l-410 -230z" />
    <glyph glyph-name="uni00B5" unicode="&#xb5;" horiz-adv-x="1224" 
d="M160 354v230v481h254v-481v-176q0 -203 186 -203q78 0 131 53q78 73 78 240v567h256v-1065h-213l-21 143q-38 -78 -120 -124t-183 -46q-69 0 -114 23v-410h-254v768z" />
    <glyph glyph-name="paragraph" unicode="&#xb6;" horiz-adv-x="1378" 
d="M102 1044q0 169 119.5 288.5t288.5 119.5h745v-199h-139v-1509h-205v1509h-198v-1509h-203v893q-169 0 -288.5 119t-119.5 288z" />
    <glyph glyph-name="periodcentered" unicode="&#xb7;" horiz-adv-x="645" 
d="M147 440v320h312v-320h-312z" />
    <glyph glyph-name="cedilla" unicode="&#xb8;" horiz-adv-x="405" 
d="M18 -371l170 308h199l-156 -408z" />
    <glyph glyph-name="uni00B9" unicode="&#xb9;" horiz-adv-x="638" 
d="M80 1092v211l215 149h170v-747h-191v524z" />
    <glyph glyph-name="ordmasculine" unicode="&#xba;" horiz-adv-x="972" 
d="M115 1026q0 189 90 301q44 54 119 89.5t163 35.5t162.5 -35.5t118.5 -89.5q90 -112 90 -301q0 -185 -88 -295q-44 -55 -120 -92t-163 -37t-163.5 37t-120.5 92q-88 110 -88 295zM313 1026q0 -149 52 -205q47 -51 122 -51q74 0 121 51q54 59 54 205q0 148 -54 207
q-47 51 -121 51q-75 0 -122 -51q-52 -56 -52 -207z" />
    <glyph glyph-name="guillemotright" unicode="&#xbb;" horiz-adv-x="1202" 
d="M113 215l233 397l-233 398l149 106l354 -506l-354 -499zM606 215l234 397l-234 398l150 106l354 -506l-354 -499z" />
    <glyph glyph-name="onequarter" unicode="&#xbc;" horiz-adv-x="1808" 
d="M152 1092v211l215 149h170v-747h-191v524zM281 74l1034 1407l155 -109l-1038 -1413zM1047 145v195l237 426h197l-252 -455h184v168h184v-168h99v-166h-99v-145h-184v145h-366z" />
    <glyph glyph-name="onehalf" unicode="&#xbd;" horiz-adv-x="1875" 
d="M141 1092v211l215 149h170v-747h-190v524zM250 74l1034 1407l156 -109l-1039 -1413zM1063 489q10 136 88 207.5t215 71.5q120 0 202.5 -67.5t82.5 -184.5q0 -69 -37 -122t-103 -107l-131 -109h287v-178h-590v150l314 268q2 2 9.5 8.5t9.5 8.5t8.5 8t8.5 8.5t7 8t6.5 9.5
t4.5 10t4 11.5t2 12.5t1 15q0 37 -25 60.5t-63 23.5q-100 0 -107 -113h-194z" />
    <glyph glyph-name="threequarters" unicode="&#xbe;" horiz-adv-x="1884" 
d="M125 942h180q4 -49 40 -73.5t87 -24.5q49 0 86 20t37 66q0 80 -109 80h-55v149h55q93 0 93 74q0 40 -31.5 60t-73.5 20q-114 0 -125 -103h-178q9 116 80 181q84 75 223 75q78 0 146 -27t108 -79q41 -54 41 -117q0 -52 -29.5 -95t-76.5 -58q53 -17 86.5 -64.5t33.5 -103.5
q0 -74 -43 -131q-77 -105 -272 -105q-146 0 -233 90q-61 61 -70 166zM385 74l1034 1407l156 -109l-1038 -1413zM1122 145v195l238 426h196l-251 -455h184v168h184v-168h99v-166h-99v-145h-184v145h-367z" />
    <glyph glyph-name="questiondown" unicode="&#xbf;" horiz-adv-x="1069" 
d="M57 -51q0 187 162 325q16 14 50 41t48.5 40t37.5 38t33 46t18 53t8 69v57h254q0 -144 -11 -198q-11 -51 -31 -93t-49 -74t-53.5 -54t-62 -52t-58.5 -49q-79 -71 -79 -147q0 -72 53 -122t145 -50q99 0 158 53.5t59 151.5h265q0 -139 -67 -239.5t-176.5 -149t-248.5 -48.5
q-199 0 -327 115.5t-128 286.5zM399 745v287h285v-287h-285z" />
    <glyph glyph-name="Agrave" unicode="&#xc0;" horiz-adv-x="1308" 
d="M0 0l510 1452h289l510 -1452h-277l-94 279h-578l-94 -279h-266zM381 1794l410 -229l81 133l-376 282zM442 516h414l-207 612z" />
    <glyph glyph-name="Aacute" unicode="&#xc1;" horiz-adv-x="1308" 
d="M0 0l510 1452h289l510 -1452h-277l-94 279h-578l-94 -279h-266zM385 1698l377 283l115 -186l-410 -230zM442 516h414l-207 612z" />
    <glyph glyph-name="Acircumflex" unicode="&#xc2;" horiz-adv-x="1308" 
d="M0 0l510 1452h289l510 -1452h-277l-94 279h-578l-94 -279h-266zM293 1700l282 297h125l275 -297l-125 -112l-211 231l-215 -238zM442 516h414l-207 612z" />
    <glyph glyph-name="Atilde" unicode="&#xc3;" horiz-adv-x="1308" 
d="M0 0l510 1452h289l510 -1452h-277l-94 279h-578l-94 -279h-266zM285 1720q119 115 229 115q45 0 90 -20.5t83.5 -41t68.5 -20.5q29 0 64 21t61 47l102 -125q-119 -115 -229 -115q-47 0 -93 19.5t-84 39t-65 19.5q-67 0 -127 -64zM442 516h414l-207 612z" />
    <glyph glyph-name="Adieresis" unicode="&#xc4;" horiz-adv-x="1308" 
d="M0 0l510 1452h289l510 -1452h-277l-94 279h-578l-94 -279h-266zM319 1620v248h240v-248h-240zM442 516h414l-207 612zM741 1620v248h240v-248h-240z" />
    <glyph glyph-name="Aring" unicode="&#xc5;" horiz-adv-x="1308" 
d="M0 0l481 1370q-90 77 -90 197q0 109 76.5 184.5t185.5 75.5t185.5 -75.5t76.5 -184.5q0 -122 -88 -197l482 -1370h-277l-94 279h-578l-94 -279h-266zM442 516h414l-207 612zM543 1567q0 -48 31.5 -81.5t78.5 -33.5t81 34t34 81t-33.5 79.5t-81.5 32.5q-47 0 -78.5 -32.5
t-31.5 -79.5z" />
    <glyph glyph-name="AE" unicode="&#xc6;" horiz-adv-x="1959" 
d="M0 0l662 1452h1216v-246h-682v-327h584v-246h-584v-387h682v-246h-946v367h-486l-157 -367h-289zM557 610h375v596h-113z" />
    <glyph glyph-name="Ccedilla" unicode="&#xc7;" horiz-adv-x="1286" 
d="M82 725q0 206 35.5 343.5t144.5 246.5q164 164 412 164q119 0 227 -43t189 -125q119 -122 139 -316h-271q-8 85 -65 154q-72 90 -219 90q-133 0 -223 -96q-35 -37 -57.5 -87t-31 -114.5t-10.5 -106.5t-2 -110t2 -110t10.5 -106.5t31 -114.5t57.5 -87q90 -96 223 -96
q68 0 126 24t93 68q56 68 65 160h271q-21 -197 -139 -318q-81 -83 -189.5 -127.5t-226.5 -44.5q-250 0 -412 162q-109 109 -144.5 246.5t-35.5 343.5zM446 -391l170 307h199l-156 -408z" />
    <glyph glyph-name="Egrave" unicode="&#xc8;" horiz-adv-x="1286" 
d="M170 0v1452h1034v-240h-770v-338h678v-237h-678v-397h770v-240h-1034zM420 1797l115 186l377 -283l-82 -133z" />
    <glyph glyph-name="Eacute" unicode="&#xc9;" horiz-adv-x="1286" 
d="M170 0v1452h1034v-240h-770v-338h678v-237h-678v-397h770v-240h-1034zM432 1698l377 283l115 -186l-410 -230z" />
    <glyph glyph-name="Ecircumflex" unicode="&#xca;" horiz-adv-x="1286" 
d="M170 0v1452h1034v-240h-770v-338h678v-237h-678v-397h770v-240h-1034zM338 1700l282 297h125l275 -297l-125 -112l-211 231l-215 -238z" />
    <glyph glyph-name="Edieresis" unicode="&#xcb;" horiz-adv-x="1286" 
d="M170 0v1452h1034v-240h-770v-338h678v-237h-678v-397h770v-240h-1034zM381 1620v248h240v-248h-240zM803 1620v248h240v-248h-240z" />
    <glyph glyph-name="Igrave" unicode="&#xcc;" horiz-adv-x="608" 
d="M51 1806l115 187l377 -283l-82 -133zM170 0v1452h268v-1452h-268z" />
    <glyph glyph-name="Iacute" unicode="&#xcd;" horiz-adv-x="608" 
d="M59 1708l377 283l115 -187l-410 -229zM170 0v1452h268v-1452h-268z" />
    <glyph glyph-name="Icircumflex" unicode="&#xce;" horiz-adv-x="608" 
d="M-39 1700l283 297h125l274 -297l-125 -113l-211 232l-215 -238zM170 0v1452h268v-1452h-268z" />
    <glyph glyph-name="Idieresis" unicode="&#xcf;" horiz-adv-x="608" 
d="M-25 1620v248h240v-248h-240zM170 0v1452h268v-1452h-268zM397 1620v248h240v-248h-240z" />
    <glyph glyph-name="Eth" unicode="&#xd0;" horiz-adv-x="1400" 
d="M41 668v172h129v612h565q124 0 230 -40.5t178 -115.5q71 -72 110.5 -174t49.5 -189.5t10 -205.5t-10 -206t-49.5 -190.5t-110.5 -174.5q-72 -75 -178 -115.5t-230 -40.5h-565v668h-129zM434 238h301q124 0 205 81q36 36 59 85t31.5 110.5t11 104t2.5 108.5t-2.5 108
t-11 103.5t-31.5 110t-59 84.5q-81 81 -205 81h-301v-374h268v-172h-268v-430z" />
    <glyph glyph-name="Ntilde" unicode="&#xd1;" horiz-adv-x="1501" 
d="M170 0v1452h281l620 -983v983h260v-1452h-272l-629 997v-997h-260zM383 1770q123 123 235 123q47 0 93 -21.5t85 -43t70 -21.5q60 0 129 69l105 -131q-119 -123 -236 -123q-47 0 -94.5 21t-86.5 42t-67 21q-70 0 -129 -67z" />
    <glyph glyph-name="Ograve" unicode="&#xd2;" horiz-adv-x="1376" 
d="M86 725q0 203 37 341.5t147 248.5q81 81 189.5 122.5t228.5 41.5t228.5 -41.5t189.5 -122.5q110 -110 147 -248.5t37 -341.5q0 -202 -37 -340t-147 -248q-81 -81 -189.5 -122.5t-228.5 -41.5t-228.5 41.5t-189.5 122.5q-110 110 -147 248t-37 340zM354 725
q0 -64 2.5 -109.5t12 -107t32.5 -112t58 -87.5q42 -45 103.5 -70.5t125.5 -25.5t126 25.5t104 70.5q35 37 58 87.5t32 112.5t11.5 106.5t2.5 109.5t-2.5 110t-11.5 107.5t-32 113t-58 87.5q-42 45 -104 70.5t-126 25.5t-125.5 -25.5t-103.5 -70.5q-35 -37 -58 -88
t-32.5 -113t-12 -107.5t-2.5 -109.5zM432 1797l115 186l377 -283l-82 -133z" />
    <glyph glyph-name="Oacute" unicode="&#xd3;" horiz-adv-x="1376" 
d="M86 725q0 203 37 341.5t147 248.5q81 81 189.5 122.5t228.5 41.5t228.5 -41.5t189.5 -122.5q110 -110 147 -248.5t37 -341.5q0 -202 -37 -340t-147 -248q-81 -81 -189.5 -122.5t-228.5 -41.5t-228.5 41.5t-189.5 122.5q-110 110 -147 248t-37 340zM354 725
q0 -64 2.5 -109.5t12 -107t32.5 -112t58 -87.5q42 -45 103.5 -70.5t125.5 -25.5t126 25.5t104 70.5q35 37 58 87.5t32 112.5t11.5 106.5t2.5 109.5t-2.5 110t-11.5 107.5t-32 113t-58 87.5q-42 45 -104 70.5t-126 25.5t-125.5 -25.5t-103.5 -70.5q-35 -37 -58 -88
t-32.5 -113t-12 -107.5t-2.5 -109.5zM420 1698l377 283l115 -186l-410 -230z" />
    <glyph glyph-name="Ocircumflex" unicode="&#xd4;" horiz-adv-x="1376" 
d="M86 725q0 203 37 341.5t147 248.5q81 81 189.5 122.5t228.5 41.5t228.5 -41.5t189.5 -122.5q110 -110 147 -248.5t37 -341.5q0 -202 -37 -340t-147 -248q-81 -81 -189.5 -122.5t-228.5 -41.5t-228.5 41.5t-189.5 122.5q-110 110 -147 248t-37 340zM350 1700l282 297h125
l275 -297l-125 -112l-211 231l-215 -238zM354 725q0 -64 2.5 -109.5t12 -107t32.5 -112t58 -87.5q42 -45 103.5 -70.5t125.5 -25.5t126 25.5t104 70.5q35 37 58 87.5t32 112.5t11.5 106.5t2.5 109.5t-2.5 110t-11.5 107.5t-32 113t-58 87.5q-42 45 -104 70.5t-126 25.5
t-125.5 -25.5t-103.5 -70.5q-35 -37 -58 -88t-32.5 -113t-12 -107.5t-2.5 -109.5z" />
    <glyph glyph-name="Otilde" unicode="&#xd5;" horiz-adv-x="1376" 
d="M86 725q0 203 37 341.5t147 248.5q81 81 189.5 122.5t228.5 41.5t228.5 -41.5t189.5 -122.5q110 -110 147 -248.5t37 -341.5q0 -202 -37 -340t-147 -248q-81 -81 -189.5 -122.5t-228.5 -41.5t-228.5 41.5t-189.5 122.5q-110 110 -147 248t-37 340zM340 1733
q118 114 229 114q45 0 90 -20t83.5 -40t68.5 -20q56 0 127 66l100 -125q-115 -115 -229 -115q-47 0 -93 19.5t-84 39t-65 19.5q-66 0 -125 -63zM354 725q0 -64 2.5 -109.5t12 -107t32.5 -112t58 -87.5q42 -45 103.5 -70.5t125.5 -25.5t126 25.5t104 70.5q35 37 58 87.5
t32 112.5t11.5 106.5t2.5 109.5t-2.5 110t-11.5 107.5t-32 113t-58 87.5q-42 45 -104 70.5t-126 25.5t-125.5 -25.5t-103.5 -70.5q-35 -37 -58 -88t-32.5 -113t-12 -107.5t-2.5 -109.5z" />
    <glyph glyph-name="Odieresis" unicode="&#xd6;" horiz-adv-x="1376" 
d="M86 725q0 203 37 341.5t147 248.5q81 81 189.5 122.5t228.5 41.5t228.5 -41.5t189.5 -122.5q110 -110 147 -248.5t37 -341.5q0 -202 -37 -340t-147 -248q-81 -81 -189.5 -122.5t-228.5 -41.5t-228.5 41.5t-189.5 122.5q-110 110 -147 248t-37 340zM354 725
q0 -64 2.5 -109.5t12 -107t32.5 -112t58 -87.5q42 -45 103.5 -70.5t125.5 -25.5t126 25.5t104 70.5q35 37 58 87.5t32 112.5t11.5 106.5t2.5 109.5t-2.5 110t-11.5 107.5t-32 113t-58 87.5q-42 45 -104 70.5t-126 25.5t-125.5 -25.5t-103.5 -70.5q-35 -37 -58 -88
t-32.5 -113t-12 -107.5t-2.5 -109.5zM358 1624v248h240v-248h-240zM780 1624v248h240v-248h-240z" />
    <glyph glyph-name="multiply" unicode="&#xd7;" horiz-adv-x="1406" 
d="M129 182l426 426l-426 426l147 148l426 -424l426 424l150 -148l-426 -426l426 -426l-150 -147l-426 426l-426 -426z" />
    <glyph glyph-name="Oslash" unicode="&#xd8;" horiz-adv-x="1376" 
d="M86 725q0 203 37 341.5t147 248.5q81 81 189.5 122.5t228.5 41.5q129 0 236 -45l67 143l137 -61l-71 -156q32 -28 49 -45q110 -110 147 -248.5t37 -341.5q0 -202 -37 -340t-147 -248q-81 -81 -189.5 -122.5t-228.5 -41.5q-135 0 -254 52l-82 -172l-137 61l88 192
q-12 10 -33 31q-110 110 -147 248t-37 340zM354 725q0 -253 68 -367l397 852q-66 29 -131 29q-64 0 -125.5 -25.5t-103.5 -70.5q-35 -37 -58 -88t-32.5 -113t-12 -107.5t-2.5 -109.5zM539 250q70 -37 149 -37q64 0 126 25.5t104 70.5q35 37 58 87.5t32 112.5t11.5 106.5
t2.5 109.5q0 82 -3 135t-22 129t-55 125z" />
    <glyph glyph-name="Ugrave" unicode="&#xd9;" horiz-adv-x="1396" 
d="M129 557v895h264v-891q0 -162 76 -255t229 -93t229.5 93t76.5 255v891h264v-895q0 -175 -63.5 -305t-193 -204.5t-313.5 -74.5t-313.5 74.5t-192.5 204.5t-63 305zM426 1806l115 187l377 -283l-82 -133z" />
    <glyph glyph-name="Uacute" unicode="&#xda;" horiz-adv-x="1396" 
d="M129 557v895h264v-891q0 -162 76 -255t229 -93t229.5 93t76.5 255v891h264v-895q0 -175 -63.5 -305t-193 -204.5t-313.5 -74.5t-313.5 74.5t-192.5 204.5t-63 305zM473 1708l377 283l115 -187l-410 -229z" />
    <glyph glyph-name="Ucircumflex" unicode="&#xdb;" horiz-adv-x="1396" 
d="M129 557v895h264v-891q0 -162 76 -255t229 -93t229.5 93t76.5 255v891h264v-895q0 -175 -63.5 -305t-193 -204.5t-313.5 -74.5t-313.5 74.5t-192.5 204.5t-63 305zM360 1700l283 297h125l274 -297l-124 -113l-211 232l-215 -238z" />
    <glyph glyph-name="Udieresis" unicode="&#xdc;" horiz-adv-x="1396" 
d="M129 557v895h264v-891q0 -162 76 -255t229 -93t229.5 93t76.5 255v891h264v-895q0 -175 -63.5 -305t-193 -204.5t-313.5 -74.5t-313.5 74.5t-192.5 204.5t-63 305zM367 1622v248h239v-248h-239zM788 1622v248h240v-248h-240z" />
    <glyph glyph-name="Yacute" unicode="&#xdd;" horiz-adv-x="1277" 
d="M0 1452h287l358 -627l359 627h274l-508 -895v-557h-266v557zM395 1698l377 283l115 -186l-410 -230z" />
    <glyph glyph-name="Thorn" unicode="&#xde;" horiz-adv-x="1216" 
d="M170 0v1452h262v-244h256q245 0 373.5 -124t128.5 -339q0 -224 -128.5 -349.5t-373.5 -125.5h-256v-270h-262zM432 500h246q131 0 188.5 61t57.5 182q0 110 -59.5 172t-186.5 62h-246v-477z" />
    <glyph glyph-name="germandbls" unicode="&#xdf;" horiz-adv-x="1247" 
d="M31 854v211h174q3 202 129 318t325 116q189 0 313 -105t124 -276q0 -97 -53 -180.5t-142 -110.5q139 -31 217 -140.5t78 -254.5q0 -199 -121.5 -325.5t-320.5 -126.5q-109 0 -193 20v223q65 -12 137 -12q112 0 176 68.5t64 179.5q0 129 -74.5 190.5t-204.5 61.5h-43v213
h43q83 0 131 46t48 126q0 83 -50 132.5t-133 49.5q-202 0 -202 -246v-1032h-252v854h-170z" />
    <glyph glyph-name="agrave" unicode="&#xe0;" horiz-adv-x="1150" 
d="M72 307q0 147 101 235t259 99l313 23v65q0 82 -39 125t-141 43q-89 0 -139.5 -39.5t-54.5 -112.5h-248q10 172 131.5 259.5t310.5 87.5q317 0 400 -218q30 -76 30 -215v-395q0 -37 14 -52t46 -15l32 4v-189q-28 -12 -40 -16t-34.5 -8t-51.5 -4q-80 0 -127.5 42.5
t-53.5 106.5q-39 -68 -126.5 -114t-196.5 -46q-181 0 -283 97.5t-102 236.5zM322 313q0 -60 44.5 -96.5t106.5 -36.5q123 0 197.5 64t74.5 180v49l-270 -20q-63 -5 -108 -42t-45 -98zM322 1389l409 -230l82 133l-377 283z" />
    <glyph glyph-name="aacute" unicode="&#xe1;" horiz-adv-x="1150" 
d="M72 307q0 147 101 235t259 99l313 23v65q0 82 -39 125t-141 43q-89 0 -139.5 -39.5t-54.5 -112.5h-248q10 172 131.5 259.5t310.5 87.5q317 0 400 -218q30 -76 30 -215v-395q0 -37 14 -52t46 -15l32 4v-189q-28 -12 -40 -16t-34.5 -8t-51.5 -4q-80 0 -127.5 42.5
t-53.5 106.5q-39 -68 -126.5 -114t-196.5 -46q-181 0 -283 97.5t-102 236.5zM290 1292l377 283l115 -186l-410 -230zM322 313q0 -60 44.5 -96.5t106.5 -36.5q123 0 197.5 64t74.5 180v49l-270 -20q-63 -5 -108 -42t-45 -98z" />
    <glyph glyph-name="acircumflex" unicode="&#xe2;" horiz-adv-x="1150" 
d="M72 307q0 147 101 235t259 99l313 23v65q0 82 -39 125t-141 43q-89 0 -139.5 -39.5t-54.5 -112.5h-248q10 172 131.5 259.5t310.5 87.5q317 0 400 -218q30 -76 30 -215v-395q0 -37 14 -52t46 -15l32 4v-189q-28 -12 -40 -16t-34.5 -8t-51.5 -4q-80 0 -127.5 42.5
t-53.5 106.5q-39 -68 -126.5 -114t-196.5 -46q-181 0 -283 97.5t-102 236.5zM213 1288l282 297h125l275 -297l-125 -112l-211 231l-215 -238zM322 313q0 -60 44.5 -96.5t106.5 -36.5q123 0 197.5 64t74.5 180v49l-270 -20q-63 -5 -108 -42t-45 -98z" />
    <glyph glyph-name="atilde" unicode="&#xe3;" horiz-adv-x="1150" 
d="M72 307q0 147 101 235t259 99l313 23v65q0 82 -39 125t-141 43q-89 0 -139.5 -39.5t-54.5 -112.5h-248q10 172 131.5 259.5t310.5 87.5q317 0 400 -218q30 -76 30 -215v-395q0 -37 14 -52t46 -15l32 4v-189q-28 -12 -40 -16t-34.5 -8t-51.5 -4q-80 0 -127.5 42.5
t-53.5 106.5q-39 -68 -126.5 -114t-196.5 -46q-181 0 -283 97.5t-102 236.5zM205 1401q121 121 231 121q45 0 90 -21t83.5 -42t68.5 -21q31 0 66.5 20.5t60.5 46.5l102 -129q-121 -121 -231 -121q-47 0 -93 20.5t-84 41t-65 20.5q-69 0 -127 -65zM322 313q0 -60 44.5 -96.5
t106.5 -36.5q123 0 197.5 64t74.5 180v49l-270 -20q-63 -5 -108 -42t-45 -98z" />
    <glyph glyph-name="adieresis" unicode="&#xe4;" horiz-adv-x="1150" 
d="M72 307q0 147 101 235t259 99l313 23v65q0 82 -39 125t-141 43q-89 0 -139.5 -39.5t-54.5 -112.5h-248q10 172 131.5 259.5t310.5 87.5q317 0 400 -218q30 -76 30 -215v-395q0 -37 14 -52t46 -15l32 4v-189q-28 -12 -40 -16t-34.5 -8t-51.5 -4q-80 0 -127.5 42.5
t-53.5 106.5q-39 -68 -126.5 -114t-196.5 -46q-181 0 -283 97.5t-102 236.5zM244 1231v248h240v-248h-240zM322 313q0 -60 44.5 -96.5t106.5 -36.5q123 0 197.5 64t74.5 180v49l-270 -20q-63 -5 -108 -42t-45 -98zM666 1231v248h240v-248h-240z" />
    <glyph glyph-name="aring" unicode="&#xe5;" horiz-adv-x="1150" 
d="M72 307q0 147 101 235t259 99l313 23v65q0 82 -39 125t-141 43q-89 0 -139.5 -39.5t-54.5 -112.5h-248q10 172 131.5 259.5t310.5 87.5q317 0 400 -218q30 -76 30 -215v-395q0 -37 14 -52t46 -15l32 4v-189q-28 -12 -40 -16t-34.5 -8t-51.5 -4q-80 0 -127.5 42.5
t-53.5 106.5q-39 -68 -126.5 -114t-196.5 -46q-181 0 -283 97.5t-102 236.5zM311 1454q0 104 73 176t177 72t177 -72t73 -176t-73 -177t-177 -73t-177 73t-73 177zM322 313q0 -60 44.5 -96.5t106.5 -36.5q123 0 197.5 64t74.5 180v49l-270 -20q-63 -5 -108 -42t-45 -98z
M455 1454q0 -44 31 -76t75 -32t76.5 32t32.5 76t-32.5 75.5t-76.5 31.5t-75 -31.5t-31 -75.5z" />
    <glyph glyph-name="ae" unicode="&#xe6;" horiz-adv-x="1761" 
d="M72 305q0 77 28.5 137.5t78.5 100t114 62t139 28.5q43 4 114.5 5t121.5 0l51 -1v92q0 86 -39.5 124t-126.5 38q-176 0 -188 -146h-248q7 116 66.5 195.5t153.5 115.5t216 36q208 0 324 -125q112 125 327 125q253 0 385 -195q92 -136 92 -391v-57h-704q2 -58 15.5 -106
t39.5 -87.5t71 -61.5t105 -22q156 0 207 143h248q-6 -47 -30.5 -99t-57.5 -91q-63 -76 -157.5 -114t-200.5 -38q-140 0 -245.5 58t-146.5 149q-108 -207 -372 -207q-72 0 -139 21t-121.5 61t-87.5 104.5t-33 145.5zM322 313q0 -60 43.5 -94.5t105.5 -34.5q120 0 184 75
t64 190q-180 0 -248 -5q-67 -5 -108 -37.5t-41 -93.5zM975 637h448q-2 114 -55.5 183t-165.5 69q-110 0 -167 -70.5t-60 -181.5z" />
    <glyph glyph-name="ccedilla" unicode="&#xe7;" horiz-adv-x="1087" 
d="M86 535q0 243 117 389q60 73 157.5 120.5t212.5 47.5t210 -47t155 -121q76 -97 82 -232h-252q-3 51 -31 99q-52 79 -164 79q-94 0 -155 -65q-72 -80 -72 -270q0 -189 72 -269q63 -67 155 -67q111 0 164 80q28 48 31 98h252q-6 -135 -82 -232q-60 -74 -155 -121t-210 -47
t-212.5 47.5t-157.5 120.5q-117 146 -117 390zM348 -398l170 308h199l-156 -408z" />
    <glyph glyph-name="egrave" unicode="&#xe8;" horiz-adv-x="1140" 
d="M86 530q0 269 154 426q133 136 340 136q122 0 223.5 -50t165.5 -147q99 -148 92 -371q-2 -48 -2 -71h-713q-3 -131 78 -209q70 -66 158 -66q104 0 155 51q38 38 51 90h246q-4 -45 -30.5 -101t-59.5 -95q-127 -150 -358 -150q-198 0 -336 131q-164 158 -164 426zM336 1391
l409 -230l82 133l-376 283zM344 639h461q-3 117 -66 186q-59 62 -161 62q-117 0 -179 -82q-52 -66 -55 -166z" />
    <glyph glyph-name="eacute" unicode="&#xe9;" horiz-adv-x="1140" 
d="M86 530q0 269 154 426q133 136 340 136q122 0 223.5 -50t165.5 -147q99 -148 92 -371q-2 -48 -2 -71h-713q-3 -131 78 -209q70 -66 158 -66q104 0 155 51q38 38 51 90h246q-4 -45 -30.5 -101t-59.5 -95q-127 -150 -358 -150q-198 0 -336 131q-164 158 -164 426zM344 639
h461q-3 117 -66 186q-59 62 -161 62q-117 0 -179 -82q-52 -66 -55 -166zM346 1292l377 283l115 -186l-410 -230z" />
    <glyph glyph-name="ecircumflex" unicode="&#xea;" horiz-adv-x="1140" 
d="M86 530q0 269 154 426q133 136 340 136q122 0 223.5 -50t165.5 -147q99 -148 92 -371q-2 -48 -2 -71h-713q-3 -131 78 -209q70 -66 158 -66q104 0 155 51q38 38 51 90h246q-4 -45 -30.5 -101t-59.5 -95q-127 -150 -358 -150q-198 0 -336 131q-164 158 -164 426zM221 1288
l282 297h125l275 -297l-125 -112l-211 231l-215 -238zM344 639h461q-3 117 -66 186q-59 62 -161 62q-117 0 -179 -82q-52 -66 -55 -166z" />
    <glyph glyph-name="edieresis" unicode="&#xeb;" horiz-adv-x="1140" 
d="M86 530q0 269 154 426q133 136 340 136q122 0 223.5 -50t165.5 -147q99 -148 92 -371q-2 -48 -2 -71h-713q-3 -131 78 -209q70 -66 158 -66q104 0 155 51q38 38 51 90h246q-4 -45 -30.5 -101t-59.5 -95q-127 -150 -358 -150q-198 0 -336 131q-164 158 -164 426zM266 1231
v248h240v-248h-240zM344 639h461q-3 117 -66 186q-59 62 -161 62q-117 0 -179 -82q-52 -66 -55 -166zM688 1231v248h240v-248h-240z" />
    <glyph glyph-name="igrave" unicode="&#xec;" horiz-adv-x="585" 
d="M66 1372l364 -211l74 123l-336 260zM164 0v1065h260v-1065h-260z" />
    <glyph glyph-name="iacute" unicode="&#xed;" horiz-adv-x="585" 
d="M49 1286l336 260l102 -172l-364 -211zM164 0v1065h260v-1065h-260z" />
    <glyph glyph-name="icircumflex" unicode="&#xee;" horiz-adv-x="585" 
d="M-12 1268l252 274h110l246 -274l-113 -103l-186 213l-193 -219zM164 0v1065h260v-1065h-260z" />
    <glyph glyph-name="idieresis" unicode="&#xef;" horiz-adv-x="585" 
d="M-2 1245v219h213v-219h-213zM164 0v1065h260v-1065h-260zM375 1245v219h213v-219h-213z" />
    <glyph glyph-name="eth" unicode="&#xf0;" horiz-adv-x="1150" 
d="M86 530q0 247 119 396q59 72 157 119t213 47h13l-62 102h-225v137h145l-84 148h256l87 -148h196v-137h-115l187 -305q92 -152 92 -359q0 -243 -117 -389q-60 -72 -159 -120t-214 -48t-213.5 47.5t-158.5 120.5q-117 146 -117 389zM346 530q0 -192 70 -270q63 -67 159 -67
q97 0 160 67q70 78 70 270q0 195 -70 273q-63 67 -160 67q-96 0 -159 -67q-70 -78 -70 -273z" />
    <glyph glyph-name="ntilde" unicode="&#xf1;" horiz-adv-x="1210" 
d="M160 0v1065h215l18 -137q45 81 130.5 122.5t183.5 41.5q167 0 263.5 -106t96.5 -275v-711h-256v653q0 100 -39.5 150.5t-136.5 50.5q-123 0 -184 -135q-17 -39 -25.5 -96.5t-9 -88.5t-0.5 -100v-434h-256zM272 1401q121 121 232 121q46 0 91 -21t83.5 -42t69.5 -21
q30 0 64.5 20.5t59.5 46.5l103 -129q-121 -121 -230 -121q-47 0 -93 20.5t-84.5 41t-65.5 20.5q-66 0 -127 -65z" />
    <glyph glyph-name="ograve" unicode="&#xf2;" 
d="M86 532q0 130 31 222.5t94 171.5q59 72 158 119t215 47t214.5 -47t157.5 -119q63 -79 94 -171.5t31 -222.5t-31 -222t-94 -171q-59 -72 -157.5 -119t-214.5 -47t-215 47t-158 119q-63 79 -94 171t-31 222zM342 1391l410 -230l82 133l-377 283zM346 532q0 -183 76 -268
q63 -67 162 -67q98 0 161 67q76 85 76 268q0 184 -76 269q-63 67 -161 67q-99 0 -162 -67q-76 -85 -76 -269z" />
    <glyph glyph-name="oacute" unicode="&#xf3;" 
d="M86 532q0 130 31 222.5t94 171.5q59 72 158 119t215 47t214.5 -47t157.5 -119q63 -79 94 -171.5t31 -222.5t-31 -222t-94 -171q-59 -72 -157.5 -119t-214.5 -47t-215 47t-158 119q-63 79 -94 171t-31 222zM346 532q0 -183 76 -268q63 -67 162 -67q98 0 161 67
q76 85 76 268q0 184 -76 269q-63 67 -161 67q-99 0 -162 -67q-76 -85 -76 -269zM348 1292l377 283l115 -186l-410 -230z" />
    <glyph glyph-name="ocircumflex" unicode="&#xf4;" 
d="M86 532q0 130 31 222.5t94 171.5q59 72 158 119t215 47t214.5 -47t157.5 -119q63 -79 94 -171.5t31 -222.5t-31 -222t-94 -171q-59 -72 -157.5 -119t-214.5 -47t-215 47t-158 119q-63 79 -94 171t-31 222zM229 1288l283 297h125l274 -297l-125 -112l-211 231l-215 -238z
M346 532q0 -183 76 -268q63 -67 162 -67q98 0 161 67q76 85 76 268q0 184 -76 269q-63 67 -161 67q-99 0 -162 -67q-76 -85 -76 -269z" />
    <glyph glyph-name="otilde" unicode="&#xf5;" 
d="M86 532q0 130 31 222.5t94 171.5q59 72 158 119t215 47t214.5 -47t157.5 -119q63 -79 94 -171.5t31 -222.5t-31 -222t-94 -171q-59 -72 -157.5 -119t-214.5 -47t-215 47t-158 119q-63 79 -94 171t-31 222zM207 1413q117 121 231 121q46 0 91 -21t83.5 -42t69.5 -21
q30 0 65 21t60 47l102 -129q-115 -119 -229 -119q-47 0 -93.5 20.5t-85 41t-65.5 20.5q-63 0 -127 -68zM346 532q0 -183 76 -268q63 -67 162 -67q98 0 161 67q76 85 76 268q0 184 -76 269q-63 67 -161 67q-99 0 -162 -67q-76 -85 -76 -269z" />
    <glyph glyph-name="odieresis" unicode="&#xf6;" 
d="M86 532q0 130 31 222.5t94 171.5q59 72 158 119t215 47t214.5 -47t157.5 -119q63 -79 94 -171.5t31 -222.5t-31 -222t-94 -171q-59 -72 -157.5 -119t-214.5 -47t-215 47t-158 119q-63 79 -94 171t-31 222zM262 1231v248h240v-248h-240zM346 532q0 -183 76 -268
q63 -67 162 -67q98 0 161 67q76 85 76 268q0 184 -76 269q-63 67 -161 67q-99 0 -162 -67q-76 -85 -76 -269zM684 1231v248h240v-248h-240z" />
    <glyph glyph-name="divide" unicode="&#xf7;" horiz-adv-x="1327" 
d="M123 498v233h1081v-233h-1081zM526 61v285h281v-285h-281zM526 893v285h281v-285h-281z" />
    <glyph glyph-name="oslash" unicode="&#xf8;" 
d="M86 532q0 130 31 222.5t94 171.5q59 72 158 119t215 47q74 0 151 -23l60 127l129 -57l-60 -131q57 -38 92 -82q63 -79 94 -171.5t31 -222.5t-31 -222t-94 -171q-59 -72 -157.5 -119t-214.5 -47q-96 0 -178 31l-72 -158l-129 58l76 168q-47 35 -70 67q-63 79 -94 171
t-31 222zM346 532q0 -146 43 -223l252 553q-27 6 -57 6q-99 0 -162 -67q-76 -85 -76 -269zM502 211q35 -14 82 -14q98 0 161 67q76 85 76 268q0 167 -59 250z" />
    <glyph glyph-name="ugrave" unicode="&#xf9;" horiz-adv-x="1208" 
d="M143 354v711h256v-653q0 -203 185 -203q78 0 131 53q78 73 78 240v563h256v-1065h-213l-19 139q-38 -77 -120.5 -121.5t-184.5 -44.5q-169 0 -269 104.5t-100 276.5zM330 1389l409 -230l82 133l-377 283z" />
    <glyph glyph-name="uacute" unicode="&#xfa;" horiz-adv-x="1208" 
d="M143 354v711h256v-653q0 -203 185 -203q78 0 131 53q78 73 78 240v563h256v-1065h-213l-19 139q-38 -77 -120.5 -121.5t-184.5 -44.5q-169 0 -269 104.5t-100 276.5zM372 1292l377 283l115 -186l-410 -230z" />
    <glyph glyph-name="ucircumflex" unicode="&#xfb;" horiz-adv-x="1208" 
d="M143 354v711h256v-653q0 -203 185 -203q78 0 131 53q78 73 78 240v563h256v-1065h-213l-19 139q-38 -77 -120.5 -121.5t-184.5 -44.5q-169 0 -269 104.5t-100 276.5zM242 1288l282 297h125l275 -297l-125 -112l-211 231l-215 -238z" />
    <glyph glyph-name="udieresis" unicode="&#xfc;" horiz-adv-x="1208" 
d="M143 354v711h256v-653q0 -203 185 -203q78 0 131 53q78 73 78 240v563h256v-1065h-213l-19 139q-38 -77 -120.5 -121.5t-184.5 -44.5q-169 0 -269 104.5t-100 276.5zM274 1231v248h240v-248h-240zM696 1231v248h240v-248h-240z" />
    <glyph glyph-name="yacute" unicode="&#xfd;" horiz-adv-x="1085" 
d="M0 1065h281l278 -770l266 770h260l-469 -1247q-22 -57 -48 -101t-64.5 -83.5t-93 -61t-121.5 -21.5q-91 0 -197 27v213q102 -18 144 -18q88 0 122 80l62 149zM354 1286l377 283l115 -186l-410 -230z" />
    <glyph glyph-name="thorn" unicode="&#xfe;" horiz-adv-x="1212" 
d="M160 -408v940v947h254v-510q38 60 116 91.5t164 31.5q167 0 281 -117q75 -79 113 -195.5t38 -247.5t-37.5 -246t-113.5 -194q-114 -117 -281 -117q-86 0 -164 31.5t-116 91.5v-506h-254zM401 532q0 -346 236 -346q100 0 160 74q71 90 71 272q0 185 -71 275
q-60 74 -160 74q-236 0 -236 -349z" />
    <glyph glyph-name="ydieresis" unicode="&#xff;" horiz-adv-x="1085" 
d="M0 1065h281l278 -770l266 770h260l-469 -1247q-22 -57 -48 -101t-64.5 -83.5t-93 -61t-121.5 -21.5q-91 0 -197 27v213q102 -18 144 -18q88 0 122 80l62 149zM227 1231v248h240v-248h-240zM649 1231v248h240v-248h-240z" />
    <glyph glyph-name="OE" unicode="&#x152;" horiz-adv-x="2109" 
d="M86 727q0 94 4.5 161t20 149t51 151.5t90.5 126.5q76 78 185 121t235 43q88 0 178 -29t143 -72v74h1035v-240h-771v-338h678v-237h-678v-397h771v-240h-1035v74q-59 -44 -146 -72.5t-175 -28.5q-126 0 -235 43t-185 121q-55 57 -90.5 126.5t-51 152.5t-20 150t-4.5 161z
M354 727q0 -163 9 -226q21 -134 92 -204q84 -84 217 -84t217 84q16 16 29.5 35t23 36t17 43.5t12.5 42t8.5 47.5t5.5 44.5t3 48.5t1 44v47v42v42v47t-1 44t-3 48.5t-5.5 44t-8.5 47t-12.5 41.5t-17 43t-23 36t-29.5 35q-84 84 -217 84t-217 -84q-36 -35 -58.5 -82t-31 -109
t-10 -100.5t-1.5 -109.5v-27z" />
    <glyph glyph-name="oe" unicode="&#x153;" horiz-adv-x="1851" 
d="M86 530q0 247 119 396q59 72 157 119t213 47q113 0 208.5 -43.5t154.5 -112.5l18 18q135 138 338 138q121 0 221.5 -50.5t165.5 -148.5q55 -83 74.5 -171.5t16.5 -197.5q-3 -48 -3 -71h-704q-2 -62 19 -121.5t59 -95.5q68 -64 149 -64q103 0 158 55q37 37 51 92h246
q-4 -45 -30.5 -101t-59.5 -95q-127 -150 -357 -150q-195 0 -333 131l-27 27q-59 -69 -155.5 -113.5t-209.5 -44.5q-115 0 -213.5 47.5t-158.5 120.5q-117 146 -117 389zM346 530q0 -192 70 -270q63 -67 159 -67q97 0 160 67q70 78 70 270q0 195 -70 273q-63 67 -160 67
q-96 0 -159 -67q-70 -78 -70 -273zM1063 639h453q-3 121 -64 188q-59 62 -160 62q-114 0 -176 -82q-50 -64 -53 -168z" />
    <glyph glyph-name="Ydieresis" unicode="&#x178;" horiz-adv-x="1277" 
d="M0 1452h287l358 -627l359 627h274l-508 -895v-557h-266v557zM315 1595v248h240v-248h-240zM737 1595v248h240v-248h-240z" />
    <glyph glyph-name="circumflex" unicode="&#x2c6;" horiz-adv-x="747" 
d="M33 1288l282 297h125l275 -297l-125 -112l-211 231l-215 -238z" />
    <glyph glyph-name="tilde" unicode="&#x2dc;" horiz-adv-x="782" 
d="M39 1401q123 123 235 123q47 0 93 -21.5t85 -43t70 -21.5q60 0 129 69l105 -131q-119 -123 -236 -123q-47 0 -94.5 21t-86.5 42t-67 21q-70 0 -129 -67z" />
    <glyph glyph-name="uni2000" unicode="&#x2000;" horiz-adv-x="998" 
 />
    <glyph glyph-name="uni2001" unicode="&#x2001;" horiz-adv-x="1997" 
 />
    <glyph glyph-name="uni2002" unicode="&#x2002;" horiz-adv-x="998" 
 />
    <glyph glyph-name="uni2003" unicode="&#x2003;" horiz-adv-x="1997" 
 />
    <glyph glyph-name="uni2004" unicode="&#x2004;" horiz-adv-x="665" 
 />
    <glyph glyph-name="uni2005" unicode="&#x2005;" horiz-adv-x="499" 
 />
    <glyph glyph-name="uni2006" unicode="&#x2006;" horiz-adv-x="332" 
 />
    <glyph glyph-name="uni2007" unicode="&#x2007;" horiz-adv-x="332" 
 />
    <glyph glyph-name="uni2008" unicode="&#x2008;" horiz-adv-x="249" 
 />
    <glyph glyph-name="uni2009" unicode="&#x2009;" horiz-adv-x="399" 
 />
    <glyph glyph-name="uni200A" unicode="&#x200a;" horiz-adv-x="110" 
 />
    <glyph glyph-name="uni2010" unicode="&#x2010;" horiz-adv-x="948" 
d="M123 516v229h702v-229h-702z" />
    <glyph glyph-name="uni2011" unicode="&#x2011;" horiz-adv-x="948" 
d="M123 516v229h702v-229h-702z" />
    <glyph glyph-name="figuredash" unicode="&#x2012;" horiz-adv-x="948" 
d="M123 516v229h702v-229h-702z" />
    <glyph glyph-name="endash" unicode="&#x2013;" horiz-adv-x="1349" 
d="M123 516v229h1104v-229h-1104z" />
    <glyph glyph-name="emdash" unicode="&#x2014;" horiz-adv-x="2353" 
d="M123 516v227h2107v-227h-2107z" />
    <glyph glyph-name="quoteleft" unicode="&#x2018;" horiz-adv-x="546" 
d="M125 848v276q0 133 47 216.5t168 134.5l66 -119q-77 -37 -104.5 -83t-27.5 -126h146v-299h-295z" />
    <glyph glyph-name="quoteright" unicode="&#x2019;" horiz-adv-x="505" 
d="M104 1151v301h297v-278q0 -133 -47 -216.5t-168 -134.5l-67 119q77 37 105 83.5t28 125.5h-148z" />
    <glyph glyph-name="quotesinglbase" unicode="&#x201a;" horiz-adv-x="587" 
d="M143 0v307h301v-284q0 -136 -47.5 -221t-171.5 -136l-67 121q79 37 107 84t28 129h-150z" />
    <glyph glyph-name="quotedblleft" unicode="&#x201c;" horiz-adv-x="989" 
d="M131 846v276q0 133 46 216.5t167 134.5l66 -119q-77 -37 -105.5 -83.5t-28.5 -125.5h148v-299h-293zM563 846v276q0 132 47.5 215.5t169.5 135.5l66 -119q-77 -37 -105 -83.5t-28 -125.5h145v-299h-295z" />
    <glyph glyph-name="quotedblright" unicode="&#x201d;" horiz-adv-x="948" 
d="M111 1153v299h295v-276q0 -132 -48 -215.5t-170 -135.5l-65 119q77 37 105 83.5t28 125.5h-145zM545 1153v299h293v-276q0 -133 -46 -216.5t-167 -134.5l-66 119q77 37 105 83.5t28 125.5h-147z" />
    <glyph glyph-name="quotedblbase" unicode="&#x201e;" horiz-adv-x="1032" 
d="M143 0v307h301v-284q0 -136 -47.5 -221t-171.5 -136l-67 121q79 37 107 84t28 129h-150zM588 0v307h301v-284q0 -136 -47.5 -221t-171.5 -136l-68 121q79 37 107 84t28 129h-149z" />
    <glyph glyph-name="bullet" unicode="&#x2022;" horiz-adv-x="884" 
d="M154 598q0 120 84 204.5t204 84.5t204.5 -84.5t84.5 -204.5t-84.5 -204.5t-204.5 -84.5t-204 84.5t-84 204.5z" />
    <glyph glyph-name="ellipsis" unicode="&#x2026;" horiz-adv-x="2045" 
d="M188 0v299h297v-299h-297zM874 0v299h297v-299h-297zM1561 0v299h297v-299h-297z" />
    <glyph glyph-name="uni202F" unicode="&#x202f;" horiz-adv-x="399" 
 />
    <glyph glyph-name="guilsinglleft" unicode="&#x2039;" horiz-adv-x="688" 
d="M82 610l354 506l150 -106l-234 -398l234 -397l-150 -104z" />
    <glyph glyph-name="guilsinglright" unicode="&#x203a;" horiz-adv-x="688" 
d="M102 215l234 397l-234 398l150 106l354 -506l-354 -499z" />
    <glyph glyph-name="uni205F" unicode="&#x205f;" horiz-adv-x="499" 
 />
    <glyph glyph-name="Euro" unicode="&#x20ac;" horiz-adv-x="1271" 
d="M72 487v150h143q-2 25 -2 76q0 11 1 34t1 35h-143v150h157q39 214 177 352q168 168 425 168q126 0 222 -34t188 -103l-96 -207q-78 60 -151 86.5t-163 26.5q-154 0 -251 -103q-69 -74 -91 -186h576l-72 -150h-520v-71v-74h479l-71 -150h-392q22 -105 91 -180
q96 -102 251 -102q86 0 170 32t144 80l96 -206q-92 -69 -188 -103.5t-222 -34.5q-257 0 -425 168q-136 136 -175 346h-159z" />
    <glyph glyph-name="trademark" unicode="&#x2122;" horiz-adv-x="1755" 
d="M20 1278v174h648v-174h-226v-606h-196v606h-226zM774 672v780h277l157 -494l156 494h268v-780h-194v524l-160 -504h-150l-159 502v-522h-195z" />
    <glyph glyph-name="uni25FC" unicode="&#x25fc;" horiz-adv-x="1064" 
d="M0 0v1065h1065v-1065h-1065z" />
    </font>
</defs>
</svg>
