<?xml version="1.0" standalone="no"?>
<!DOCTYPE svg PUBLIC "-//W3C//DTD SVG 1.1//EN" "http://www.w3.org/Graphics/SVG/1.1/DTD/svg11.dtd" >
<svg xmlns="http://www.w3.org/2000/svg" xmlns:xlink="http://www.w3.org/1999/xlink" version="1.1">
<metadata>
Created by FontForge 20170731 at Mon Jul 24 12:39:44 2006
 By Aleksey,,,
Copyright (c) Laurenz Brunner, 2004. All rights reserved.
</metadata>
<defs>
<font id="AkkuratLight" horiz-adv-x="568" >
  <font-face 
    font-family="Akkurat Light"
    font-weight="400"
    font-stretch="normal"
    units-per-em="1000"
    panose-1="2 0 5 3 3 0 0 2 0 4"
    ascent="800"
    descent="-200"
    x-height="500"
    cap-height="709"
    bbox="-18 -281 1081 940"
    underline-thickness="50"
    underline-position="-200"
    unicode-range="U+0020-FB02"
  />
<missing-glyph horiz-adv-x="588" 
d="M88 698v-698h412v698h-412zM425 74h-262v549h262v-549z" />
    <glyph glyph-name="fi" unicode="fi" horiz-adv-x="620" 
d="M349 677q-40 6 -72 6q-95 0 -95 -97v-86h157v-46h-157v-454h-50v454h-100v46h100v88q0 60 36.5 100t104.5 40q40 0 76 -6v-45zM524 639h-70v70h70v-70zM516 0h-53v500h53v-500z" />
    <glyph glyph-name="fl" unicode="fl" horiz-adv-x="635" 
d="M349 677q-40 6 -72 6q-95 0 -95 -97v-86h157v-46h-157v-454h-50v454h-100v46h100v88q0 60 36.5 100t104.5 40q40 0 76 -6v-45zM597 0q-22 -6 -45 -6q-100 0 -100 106v622h50v-620q0 -60 52 -60q29 0 43 2v-44z" />
    <glyph glyph-name=".notdef" horiz-adv-x="588" 
d="M88 698v-698h412v698h-412zM425 74h-262v549h262v-549z" />
    <glyph glyph-name=".null" horiz-adv-x="0" 
 />
    <glyph glyph-name="nonmarkingreturn" horiz-adv-x="333" 
 />
    <glyph glyph-name="space" unicode=" " horiz-adv-x="215" 
 />
    <glyph glyph-name="exclam" unicode="!" horiz-adv-x="307" 
d="M198 515l-14 -288h-34l-14 288v194h62v-194zM206 0h-76v76h76v-76z" />
    <glyph glyph-name="quotedbl" unicode="&#x22;" horiz-adv-x="438" 
d="M308 585l-15 -152h-32l-14 152v124h61v-124zM157 585l-15 -152h-32l-14 152v124h61v-124z" />
    <glyph glyph-name="numbersign" unicode="#" horiz-adv-x="765" 
d="M687 452h-137l-29 -209h133v-45h-140l-28 -198h-44l28 198h-216l-28 -198h-45l28 198h-126v45h133l29 209h-129v45h136l28 198h44l-28 -198h216l28 198h45l-28 -198h130v-45zM506 452h-216l-30 -209h216z" />
    <glyph glyph-name="dollar" unicode="$" 
d="M523 202q0 -79 -56 -133q-60 -60 -162 -66v-91h-41v91q-109 7 -170 72q-61 66 -61 154h50q0 -72 51 -125q49 -50 130 -55v293l-45 6q-73 10 -119.5 53.5t-46.5 118.5q0 72 60 127q62 55 151 60v93h41v-94q92 -9 146 -67q58 -62 61 -141h-50q-3 64 -48 112q-38 41 -109 49
v-270l47 -6q80 -10 125.5 -57.5t45.5 -123.5zM264 394v267q-71 -3 -114 -41q-47 -40 -47 -100q0 -106 121 -121zM473 202q0 114 -127 130l-41 5v-288q78 6 125 52q43 41 43 101z" />
    <glyph glyph-name="percent" unicode="%" horiz-adv-x="925" 
d="M852 172q0 -77 -33 -125q-44 -61 -119 -61t-119 61q-33 48 -33 125t33 125q44 61 119 61q77 0 119 -61q33 -48 33 -125zM736 694l-518 -706l-35 27l517 704zM372 536q0 -77 -33 -125q-44 -61 -119 -61q-76 0 -120 61q-32 47 -32 125t32 125q44 61 119 61q78 0 120 -61
q33 -48 33 -125zM806 172q0 63 -26 102t-80 39t-80.5 -39t-26.5 -102t26.5 -102t80.5 -39t80 39t26 102zM326 536q0 63 -26.5 102t-80.5 39t-80 -39t-26 -102t26.5 -102t80.5 -39t80 39t26 102z" />
    <glyph glyph-name="ampersand" unicode="&#x26;" horiz-adv-x="719" 
d="M667 352h-76q-2 -158 -51 -228l111 -124h-64l-74 84q-85 -98 -213 -98q-89 0 -149.5 55t-60.5 145q0 110 97 167l56 33l-52 58q-49 55 -49 121q0 67 47.5 112.5t119.5 45.5t121 -43.5t49 -114.5q0 -94 -87 -146l-74 -44l188 -213q37 66 37 192v43h124v-45zM430 565
q0 50 -34 81t-87 31q-49 0 -83 -31t-34 -81q0 -47 42 -96l52 -60l81 50q63 39 63 106zM478 122l-203 228l-56 -33q-78 -45 -78 -131q0 -66 46 -108t113 -42q110 0 178 86z" />
    <glyph glyph-name="quotesingle" unicode="'" horiz-adv-x="241" 
d="M151 585l-15 -152h-32l-14 152v124h61v-124z" />
    <glyph glyph-name="parenleft" unicode="(" horiz-adv-x="291" 
d="M271 -104l-31 -24q-79 89 -122 210t-43 241t43 241t122 210l31 -24q-149 -192 -149 -427t149 -427z" />
    <glyph glyph-name="parenright" unicode=")" horiz-adv-x="291" 
d="M216 323q0 -120 -43 -241t-122 -210l-31 24q149 192 149 427t-149 427l31 24q79 -89 122 -210t43 -241z" />
    <glyph glyph-name="asterisk" unicode="*" horiz-adv-x="534" 
d="M471 532l-173 -52l108 -143l-38 -28l-102 149l-102 -149l-38 28l110 143l-173 52l14 45l171 -60l-5 180h47l-4 -180l170 60z" />
    <glyph glyph-name="plus" unicode="+" horiz-adv-x="683" 
d="M610 280h-245v-275h-47v275h-245v45h245v257h47v-257h245v-45z" />
    <glyph glyph-name="comma" unicode="," horiz-adv-x="269" 
d="M181 -1q0 -86 -76 -122l-17 28q32 17 44 37.5t12 57.5h-55v90h92v-91z" />
    <glyph glyph-name="hyphen" unicode="-" horiz-adv-x="433" 
d="M358 279h-283v46h283v-46z" />
    <glyph glyph-name="period" unicode="." horiz-adv-x="264" 
d="M176 0h-88v90h88v-90z" />
    <glyph glyph-name="slash" unicode="/" horiz-adv-x="396" 
d="M384 722l-313 -735h-46l313 735h46z" />
    <glyph glyph-name="zero" unicode="0" 
d="M507 348q0 -226 -82 -305q-58 -56 -141 -56t-141 56q-82 79 -82 305t82 305q58 56 141 56t141 -56q82 -79 82 -305zM456 348q0 61 -2.5 100.5t-18 92t-44.5 80.5q-42 40 -107 40t-107 -40q-29 -28 -44.5 -80.5t-18 -92t-2.5 -100.5t2.5 -100.5t18 -92t44.5 -80.5
q42 -40 107 -40t107 40q29 28 44.5 80.5t18 92t2.5 100.5z" />
    <glyph glyph-name="one" unicode="1" 
d="M343 0h-50v633l-173 -127v56l178 133h45v-695z" />
    <glyph glyph-name="two" unicode="2" 
d="M502 0h-403v54l278 347q56 70 56 134q0 59 -38.5 92.5t-97.5 33.5q-69 0 -107.5 -43.5t-38.5 -114.5h-53q0 91 54 148.5t145 57.5q82 0 134 -47t52 -127t-68 -163l-260 -324h347v-48z" />
    <glyph glyph-name="three" unicode="3" 
d="M488 182q0 -86 -62.5 -140.5t-152.5 -54.5q-97 0 -154 60t-59 155h51q1 -72 42.5 -119.5t119.5 -47.5q74 0 118.5 40t44.5 107q0 76 -43.5 116t-120.5 40h-37v48h37q69 0 109 36t40 104q0 60 -42.5 97.5t-102.5 37.5q-72 0 -115.5 -43t-44.5 -114h-52q1 92 60.5 148.5
t151.5 56.5q83 0 140 -50.5t57 -132.5q0 -58 -29.5 -103t-83.5 -61q60 -17 94 -66.5t34 -113.5z" />
    <glyph glyph-name="four" unicode="4" 
d="M530 159h-97v-159h-51v159h-328v55l283 481h57l-286 -486h274v215h51v-215h97v-50z" />
    <glyph glyph-name="five" unicode="5" 
d="M508 218q0 -103 -55 -167.5t-159 -64.5q-96 0 -155.5 61t-61.5 154h51q3 -75 47.5 -121t118.5 -46q80 0 121.5 49.5t41.5 134.5q0 81 -39 132.5t-116 51.5q-102 0 -149 -76h-62l16 369h378v-47h-330l-14 -276q48 77 161 77q100 0 153 -64t53 -167z" />
    <glyph glyph-name="six" unicode="6" 
d="M511 220q0 -99 -58 -166t-157 -67q-104 0 -164 85q-61 85 -61 277q0 211 76 294q60 66 148 66q84 0 139.5 -50t59.5 -131h-52q-4 61 -43 97t-104 36q-67 0 -110 -47q-62 -67 -62 -272q21 48 68 78.5t104 30.5q101 0 158.5 -63.5t57.5 -167.5zM460 220q0 78 -41.5 131.5
t-122.5 53.5q-62 0 -106 -42q-53 -51 -53 -141q0 -77 42.5 -132t117.5 -55q81 0 122 53.5t41 131.5z" />
    <glyph glyph-name="seven" unicode="7" 
d="M489 642l-299 -642h-54l302 647h-383v48h434v-53z" />
    <glyph glyph-name="eight" unicode="8" 
d="M503 183q0 -91 -63.5 -143.5t-156.5 -52.5t-155.5 52.5t-62.5 143.5q0 60 34 110.5t89 69.5q-48 19 -77.5 64t-29.5 97q0 86 58 135.5t146 49.5t145 -49.5t57 -135.5q0 -52 -29.5 -97t-77.5 -64q55 -19 89 -69.5t34 -110.5zM435 526q0 65 -43 101.5t-109 36.5
q-65 0 -107.5 -36.5t-42.5 -101.5q0 -66 42.5 -103.5t109.5 -37.5q66 0 108 37.5t42 103.5zM451 186q0 72 -47.5 113.5t-120.5 41.5t-119.5 -41.5t-46.5 -113.5t47.5 -112.5t120.5 -40.5t119.5 40.5t46.5 112.5z" />
    <glyph glyph-name="nine" unicode="9" 
d="M496 347q0 -103 -13 -176.5t-57 -121.5q-57 -62 -148 -62q-84 0 -140.5 50t-60.5 131h52q4 -61 44 -97t105 -36q70 0 110 43q20 22 33 54.5t17 78.5t5 70t1 73q-22 -49 -67.5 -79t-102.5 -30q-101 0 -158.5 63.5t-57.5 167.5q0 99 58 166t157 67q54 0 97 -24t69 -60
q57 -79 57 -278zM432 474q0 77 -42.5 132t-117.5 55q-81 0 -122 -53.5t-41 -131.5t41.5 -131.5t122.5 -53.5q62 0 106 42q53 51 53 141z" />
    <glyph glyph-name="colon" unicode=":" horiz-adv-x="289" 
d="M193 414h-83v86h83v-86zM193 0h-83v86h83v-86z" />
    <glyph glyph-name="semicolon" unicode=";" horiz-adv-x="289" 
d="M197 414h-83v86h83v-86zM199 -1q0 -81 -73 -116l-16 27q31 16 42.5 35.5t11.5 54.5h-53v86h88v-87z" />
    <glyph glyph-name="less" unicode="&#x3c;" horiz-adv-x="488" 
d="M413 7l-30 -30l-328 327l327 327l30 -31l-296 -296z" />
    <glyph glyph-name="equal" unicode="=" horiz-adv-x="693" 
d="M580 373h-467v46h467v-46zM580 136h-467v46h467v-46z" />
    <glyph glyph-name="greater" unicode="&#x3e;" horiz-adv-x="488" 
d="M433 304l-328 -327l-30 30l297 297l-296 296l30 31z" />
    <glyph glyph-name="question" unicode="?" horiz-adv-x="488" 
d="M458 542q0 -110 -106 -178q-51 -32 -66.5 -62.5t-15.5 -93.5h-52q0 77 23 117.5t89 84.5q72 48 72 129q0 62 -40.5 98.5t-104.5 36.5q-77 0 -119.5 -41.5t-42.5 -117.5h-55q0 95 60 152.5t157 57.5q93 0 150 -59q51 -54 51 -124zM284 0h-79v78h79v-78z" />
    <glyph glyph-name="at" unicode="@" horiz-adv-x="934" 
d="M862 381q0 -48 -11.5 -95t-34 -87t-60.5 -64.5t-85 -24.5q-34 0 -59 22t-31 57q-18 -34 -54.5 -55.5t-75.5 -21.5q-73 0 -114.5 51t-41.5 125q0 87 50.5 152.5t135.5 65.5q36 0 66 -17t44 -49l13 57h37l-20 -264q-2 -36 12.5 -58t42.5 -22q65 0 102 68t37 160
q0 137 -91.5 216t-230.5 79q-163 0 -261.5 -103t-98.5 -267q0 -147 93.5 -248t239.5 -101q140 0 253 49v-47q-112 -48 -256 -48q-168 0 -273.5 113t-105.5 282q0 185 112.5 300.5t296.5 115.5q159 0 264 -92.5t105 -248.5zM582 330q0 58 -26 95.5t-82 37.5q-60 0 -95.5 -54
t-35.5 -121q0 -59 28.5 -96.5t81.5 -37.5q64 0 96.5 54.5t32.5 121.5z" />
    <glyph glyph-name="A" unicode="A" horiz-adv-x="608" 
d="M600 0h-53l-72 187h-343l-70 -187h-54l269 709h51zM456 236l-154 401l-151 -401h305z" />
    <glyph glyph-name="B" unicode="B" horiz-adv-x="660" 
d="M602 196q0 -95 -65 -147q-61 -49 -178 -49h-251v709h251q97 0 154 -38q34 -22 53.5 -59t19.5 -77q0 -135 -113 -166q63 -15 96 -62t33 -111zM533 531q0 68 -50 98.5t-124 30.5h-199v-265h199q83 0 128.5 29t45.5 107zM549 200q0 145 -190 145h-199v-296h199
q190 0 190 151z" />
    <glyph glyph-name="C" unicode="C" horiz-adv-x="623" 
d="M580 217q-8 -100 -78 -165t-174 -65q-110 0 -187 77q-51 52 -67 123.5t-16 167.5t16 167t67 123q77 77 187 77q104 0 174 -65t78 -165h-54q-7 80 -61 129.5t-137 49.5q-90 0 -149 -61q-30 -31 -45.5 -79t-18.5 -84.5t-3 -91.5q0 -54 3 -91.5t19 -85.5t46 -79
q59 -61 148 -61q83 0 137 49.5t61 129.5h54z" />
    <glyph glyph-name="D" unicode="D" horiz-adv-x="666" 
d="M608 355q0 -94 -16.5 -164t-69.5 -121q-72 -70 -179 -70h-235v709h235q107 0 179 -70q53 -51 69.5 -121t16.5 -163zM555 355q0 83 -13.5 145.5t-57.5 104.5q-56 53 -141 53h-183v-607h183q85 0 141 53q44 43 57.5 105.5t13.5 145.5z" />
    <glyph glyph-name="E" unicode="E" horiz-adv-x="616" 
d="M562 0h-454v709h454v-50h-401v-260h353v-50h-353v-299h401v-50z" />
    <glyph glyph-name="F" unicode="F" horiz-adv-x="582" 
d="M552 659h-392v-274h353v-50h-353v-335h-52v709h444v-50z" />
    <glyph glyph-name="G" unicode="G" horiz-adv-x="678" 
d="M596 0h-39l-11 109q-27 -56 -84.5 -89t-122.5 -33q-112 0 -187 75q-90 89 -90 292q0 202 90 291q79 77 187 77t178 -59t78 -152h-53q-5 59 -47 106q-50 54 -155 54q-87 0 -147 -58q-77 -76 -77 -259q0 -188 78 -261q58 -55 145 -55q89 0 142 56q38 40 50 94t12 128h-209
v51h262v-367z" />
    <glyph glyph-name="H" unicode="H" horiz-adv-x="716" 
d="M608 0h-52v348h-396v-348h-52v709h52v-310h396v310h52v-709z" />
    <glyph glyph-name="I" unicode="I" horiz-adv-x="269" 
d="M161 0h-53v709h53v-709z" />
    <glyph glyph-name="J" unicode="J" horiz-adv-x="506" 
d="M411 199q0 -97 -53 -155q-54 -57 -143 -57q-78 0 -133 50q-65 59 -67 178h53q0 -96 50 -143q36 -34 97 -34q70 0 106 39q38 41 38 121v511h52v-510z" />
    <glyph glyph-name="K" unicode="K" horiz-adv-x="655" 
d="M639 0h-59l-235 405l-184 -208v-197h-53v709h53v-437l390 437h64l-235 -265z" />
    <glyph glyph-name="L" unicode="L" horiz-adv-x="546" 
d="M528 0h-420v709h52v-660h368v-49z" />
    <glyph glyph-name="M" unicode="M" horiz-adv-x="882" 
d="M774 0h-51v634l-259 -624h-46l-259 619v-629h-51v709h73l262 -630l257 630h74v-709z" />
    <glyph glyph-name="N" unicode="N" horiz-adv-x="738" 
d="M630 0h-59l-411 628v-628h-52v709h59l412 -627v627h51v-709z" />
    <glyph glyph-name="O" unicode="O" horiz-adv-x="658" 
d="M600 355q0 -96 -17.5 -170t-71.5 -126q-75 -72 -182 -72t-182 72q-54 52 -71.5 126t-17.5 170t17.5 169.5t71.5 125.5q75 72 182 72t182 -72q54 -52 71.5 -125.5t17.5 -169.5zM546 355q0 55 -3 92.5t-20.5 87.5t-49.5 81q-57 55 -144 55t-144 -55q-32 -31 -49.5 -81
t-20.5 -87.5t-3 -92.5q0 -56 3 -93t20.5 -87.5t49.5 -81.5q57 -55 144 -55t144 55q32 31 49.5 81.5t20.5 87.5t3 93z" />
    <glyph glyph-name="P" unicode="P" horiz-adv-x="618" 
d="M590 500q0 -103 -64.5 -156t-171.5 -53h-194v-1v-290h-52v709h246q107 0 171.5 -53t64.5 -156zM536 500q0 80 -50 119.5t-132 39.5h-194v-318h194q82 0 132 39.5t50 119.5z" />
    <glyph glyph-name="Q" unicode="Q" horiz-adv-x="658" 
d="M600 355q0 -94 -17 -167t-68 -125q47 -60 67 -86l-36 -29l-67 85q-66 -46 -150 -46q-107 0 -182 72q-54 52 -71.5 126t-17.5 170t17.5 169.5t71.5 125.5q75 72 182 72t182 -72q54 -52 71.5 -125.5t17.5 -169.5zM546 355q0 55 -3 92.5t-20.5 87.5t-49.5 81q-57 55 -144 55
t-144 -55q-32 -31 -49.5 -81t-20.5 -87.5t-3 -92.5q0 -56 3 -93t20.5 -87.5t49.5 -81.5q57 -55 144 -55q67 0 119 35l-106 135l36 29l105 -133q28 31 43 79t17.5 84t2.5 88z" />
    <glyph glyph-name="R" unicode="R" horiz-adv-x="656" 
d="M606 505q0 -69 -40 -120.5t-107 -69.5l144 -315h-57l-139 302h-247v-302h-52v709h259q114 0 176.5 -55t62.5 -149zM552 505q0 75 -48.5 115t-136.5 40h-207v-310h207q88 0 136.5 40t48.5 115z" />
    <glyph glyph-name="S" unicode="S" horiz-adv-x="622" 
d="M569 192q0 -80 -56 -136q-70 -69 -201 -69q-127 0 -198 76q-56 60 -64 141h54q7 -63 52 -109q57 -58 156 -58q105 0 161 53q42 40 42 102q0 52 -37.5 91t-100.5 47l-132 17q-79 10 -126.5 55.5t-47.5 123.5q0 77 62 134q68 62 175 62q57 0 109.5 -21.5t82.5 -56.5
q49 -57 54 -123h-53q-7 53 -39 90q-50 61 -154 61q-85 0 -135 -43q-48 -43 -48 -103q0 -109 125 -124l134 -17q82 -10 133.5 -64t51.5 -129z" />
    <glyph glyph-name="T" unicode="T" horiz-adv-x="533" 
d="M518 659h-226v-659h-52v659h-225v50h503v-50z" />
    <glyph glyph-name="U" unicode="U" horiz-adv-x="693" 
d="M598 260q0 -122 -64.5 -197.5t-187.5 -75.5t-187 75.5t-64 197.5v449h52v-450q0 -98 50 -160t149 -62t149.5 62t50.5 160v450h52v-449z" />
    <glyph glyph-name="V" unicode="V" horiz-adv-x="573" 
d="M565 709l-254 -709h-49l-254 709h55l225 -634l222 634h55z" />
    <glyph glyph-name="W" unicode="W" horiz-adv-x="862" 
d="M823 709l-149 -709h-57l-187 621l-187 -621h-55l-149 709h49l133 -634l187 623h47l188 -623l131 634h49z" />
    <glyph glyph-name="X" unicode="X" horiz-adv-x="572" 
d="M549 0h-59l-205 317l-206 -317h-56l233 359l-232 350h57l206 -310l206 310h56l-233 -350z" />
    <glyph glyph-name="Y" unicode="Y" horiz-adv-x="545" 
d="M543 709l-245 -428v-281h-51v281l-245 428h56l216 -377l216 377h53z" />
    <glyph glyph-name="Z" unicode="Z" horiz-adv-x="618" 
d="M566 0h-516v56l451 604h-444v49h504v-56l-452 -604h457v-49z" />
    <glyph glyph-name="bracketleft" unicode="[" horiz-adv-x="321" 
d="M286 -115h-176v877h176v-41h-132v-795h132v-41z" />
    <glyph glyph-name="backslash" unicode="\" horiz-adv-x="397" 
d="M372 -13h-47l-313 735h47z" />
    <glyph glyph-name="bracketright" unicode="]" horiz-adv-x="321" 
d="M211 -115h-176v41h132v795h-132v41h176v-877z" />
    <glyph glyph-name="asciicircum" unicode="^" horiz-adv-x="513" 
d="M443 405h-55l-131 267l-132 -267h-55l160 317h55z" />
    <glyph glyph-name="underscore" unicode="_" horiz-adv-x="530" 
d="M497 -43h-464v43h464v-43z" />
    <glyph glyph-name="grave" unicode="`" horiz-adv-x="243" 
d="M205 587l-17 -27l-168 99l27 44z" />
    <glyph glyph-name="a" unicode="a" horiz-adv-x="561" 
d="M513 0q-18 -3 -24 -3q-79 0 -79 98q-20 -51 -70 -79.5t-110 -28.5q-75 0 -123.5 42t-48.5 112q0 65 46 104.5t122 44.5l184 13v49q0 114 -132 114q-62 0 -101 -28t-43 -82h-50q5 74 58 115.5t136 41.5q57 0 103.5 -22t65.5 -70q13 -34 13 -96v-228q0 -28 7.5 -41
t31.5 -13q9 0 14 1v-44zM410 231v26l-179 -11q-56 -4 -89 -32t-33 -73q0 -52 34.5 -80t90.5 -28q88 0 132 58.5t44 139.5z" />
    <glyph glyph-name="b" unicode="b" horiz-adv-x="584" 
d="M530 249q0 -143 -82 -215q-53 -47 -133 -47q-52 0 -99 28t-67 73l-6 -88h-44v722h50v-306q20 43 67 70t100 27q82 0 136 -52q78 -74 78 -212zM479 250q0 110 -56 170q-42 44 -107 44q-64 0 -105 -39q-63 -59 -63 -175q0 -111 64 -174q42 -40 102 -40q59 0 99 35
q66 59 66 179z" />
    <glyph glyph-name="c" unicode="c" horiz-adv-x="512" 
d="M468 158q-10 -74 -64 -122.5t-131 -48.5q-88 0 -147 59q-70 70 -70 204t70 204q59 59 147 59q78 0 131 -46.5t62 -122.5h-52q-8 53 -46.5 86.5t-94.5 33.5q-70 0 -111 -43q-55 -57 -55 -171q0 -115 55 -172q40 -42 111 -42q56 0 94.5 34.5t47.5 87.5h53z" />
    <glyph glyph-name="d" unicode="d" horiz-adv-x="584" 
d="M485 0h-44l-6 88q-20 -45 -67 -73t-99 -28q-80 0 -133 47q-82 72 -82 215q0 138 78 212q54 52 136 52q53 0 100 -27t67 -70v306h50v-722zM436 250q0 116 -63 175q-41 39 -105 39q-65 0 -107 -44q-56 -60 -56 -170q0 -120 66 -179q40 -35 99 -35q60 0 102 40q64 63 64 174
z" />
    <glyph glyph-name="e" unicode="e" horiz-adv-x="539" 
d="M489 271q0 -6 -0.5 -16.5t-0.5 -16.5h-382q2 -90 52 -150q45 -53 121 -53q67 0 109 44q30 32 38 71h52q-10 -60 -56 -105q-58 -58 -143 -58q-97 0 -159 71q-64 75 -64 190q0 111 49 178q64 87 170 87q97 0 155.5 -71.5t58.5 -170.5zM438 284q-2 75 -46 128.5t-117 53.5
q-75 0 -121.5 -52.5t-46.5 -129.5h331z" />
    <glyph glyph-name="f" unicode="f" horiz-adv-x="351" 
d="M349 677q-40 6 -72 6q-95 0 -95 -97v-86h157v-46h-157v-454h-50v454h-100v46h100v88q0 60 36.5 100t104.5 40q40 0 76 -6v-45z" />
    <glyph glyph-name="g" unicode="g" horiz-adv-x="533" 
d="M514 -75q0 -53 -38 -93q-58 -59 -198 -59q-129 0 -186 58q-35 37 -35 90q0 37 20 69t55 48q-26 7 -44.5 31.5t-18.5 50.5q0 60 60 95q-50 48 -50 123q0 79 53 127t134 48q66 0 117 -34q9 31 37.5 49.5t63.5 18.5q3 0 9.5 -1t9.5 -1v-43q-3 0 -9.5 1t-9.5 1
q-27 0 -45.5 -14.5t-23.5 -39.5q40 -46 40 -112q0 -79 -54 -126t-135 -47q-56 0 -100 23q-50 -19 -50 -62q0 -33 35 -47q21 -8 67 -8h109q99 0 147 -49q40 -40 40 -97zM405 338q0 59 -39.5 94.5t-99.5 35.5t-99 -35.5t-39 -94.5t39 -93.5t99 -34.5t99.5 34.5t39.5 93.5z
M464 -75q0 36 -24 62q-35 37 -121 37h-132q-35 -8 -59 -35t-24 -68q0 -38 27 -63q42 -40 148 -40q115 0 159 44q26 26 26 63z" />
    <glyph glyph-name="h" unicode="h" horiz-adv-x="583" 
d="M494 0h-50v327q0 139 -129 139q-58 0 -97 -32.5t-54 -79t-15 -104.5v-250h-50v722h50v-314q21 47 68.5 76t100.5 29q85 0 130.5 -49t45.5 -134v-330z" />
    <glyph glyph-name="i" unicode="i" horiz-adv-x="260" 
d="M165 639h-70v70h70v-70zM157 0h-53v500h53v-500z" />
    <glyph glyph-name="j" unicode="j" horiz-adv-x="284" 
d="M188 639h-69v70h69v-70zM180 -64q0 -143 -129 -143q-27 0 -69 7v46q40 -6 65 -6q83 0 83 98v562h50v-564z" />
    <glyph glyph-name="k" unicode="k" horiz-adv-x="536" 
d="M518 0h-61l-176 267l-131 -143v-124h-51v722h51v-526l281 304h63l-177 -193z" />
    <glyph glyph-name="l" unicode="l" horiz-adv-x="279" 
d="M241 0q-22 -6 -45 -6q-100 0 -100 106v622h50v-620q0 -60 52 -60q29 0 43 2v-44z" />
    <glyph glyph-name="m" unicode="m" horiz-adv-x="875" 
d="M786 0h-50v327q0 139 -119 139q-52 0 -89 -34q-59 -56 -59 -149v-283h-51v327q0 139 -120 139q-53 0 -89 -34q-60 -56 -60 -182v-250h-50v500h44l6 -86q20 45 60 72t92 27q125 0 158 -108q21 49 61.5 78.5t99.5 29.5q84 0 125 -49.5t41 -133.5v-330z" />
    <glyph glyph-name="n" unicode="n" horiz-adv-x="583" 
d="M494 0h-50v327q0 137 -129 137q-86 0 -126 -61.5t-40 -152.5v-250h-50v500h44l6 -91q21 47 68.5 75.5t100.5 28.5q85 0 130.5 -49t45.5 -134v-330z" />
    <glyph glyph-name="o" unicode="o" horiz-adv-x="546" 
d="M490 250q0 -132 -71 -203q-60 -60 -146 -60t-146 60q-71 71 -71 203t71 203q60 60 146 60t146 -60q71 -71 71 -203zM439 250q0 112 -56 170q-42 44 -110 44t-110 -44q-56 -58 -56 -170t56 -170q42 -44 110 -44t110 44q56 58 56 170z" />
    <glyph glyph-name="p" unicode="p" horiz-adv-x="584" 
d="M530 251q0 -138 -78 -212q-54 -52 -136 -52q-53 0 -100 27t-67 70v-284h-50v700h44l6 -88q20 45 67 73t99 28q80 0 133 -47q82 -72 82 -215zM479 250q0 120 -66 179q-40 35 -99 35q-60 0 -102 -40q-64 -63 -64 -174q0 -116 63 -175q41 -39 105 -39q65 0 107 44
q56 60 56 170z" />
    <glyph glyph-name="q" unicode="q" horiz-adv-x="584" 
d="M485 -200h-50v284q-20 -43 -67 -70t-100 -27q-82 0 -136 52q-78 74 -78 212q0 143 82 215q53 47 133 47q52 0 99 -28t67 -73l6 88h44v-700zM436 250q0 111 -64 174q-42 40 -102 40q-59 0 -99 -35q-66 -59 -66 -179q0 -110 56 -170q42 -44 107 -44q64 0 105 39
q63 59 63 175z" />
    <glyph glyph-name="r" unicode="r" horiz-adv-x="381" 
d="M357 452q-20 5 -49 5q-45 0 -77.5 -18.5t-49.5 -51t-24.5 -69t-7.5 -78.5v-240h-50v500h44l6 -101q16 50 60 78t99 28q33 0 49 -3v-50z" />
    <glyph glyph-name="s" unicode="s" horiz-adv-x="512" 
d="M456 139q0 -53 -34 -92q-54 -60 -162 -60q-107 0 -164 64q-39 45 -42 101h51q4 -44 37 -77q41 -40 118 -40q81 0 118 37q27 27 27 64q0 35 -24 60t-68 31l-97 13q-78 9 -113 50q-28 33 -28 79q0 57 43 97q51 47 137 47q101 0 151 -59q36 -43 38 -92h-50q-4 36 -25 60
q-37 44 -114 44q-58 0 -90 -23q-39 -28 -39 -69q0 -34 21.5 -55.5t75.5 -28.5l95 -13q67 -9 102.5 -48.5t35.5 -89.5z" />
    <glyph glyph-name="t" unicode="t" horiz-adv-x="370" 
d="M336 5q-56 -12 -83 -12q-129 0 -129 146v315h-100v46h100v138l50 12v-150h155v-46h-155v-313q0 -49 18 -75t65 -26q30 0 79 9v-44z" />
    <glyph glyph-name="u" unicode="u" horiz-adv-x="583" 
d="M484 1h-44l-6 91q-21 -47 -68 -75.5t-101 -28.5q-85 0 -130.5 49t-45.5 134v330h50v-327q0 -137 129 -137q86 0 126 61.5t40 152.5v250h50v-500z" />
    <glyph glyph-name="v" unicode="v" horiz-adv-x="467" 
d="M453 500l-190 -500h-51l-198 500h57l168 -429l161 429h53z" />
    <glyph glyph-name="w" unicode="w" horiz-adv-x="746" 
d="M703 500l-124 -500h-60l-147 428l-146 -428h-59l-124 500h48l108 -440l148 433h53l147 -429l109 436h47z" />
    <glyph glyph-name="x" unicode="x" horiz-adv-x="472" 
d="M450 0h-60l-154 223l-155 -223h-59l180 259l-177 247h60l152 -214l153 214h58l-178 -247z" />
    <glyph glyph-name="y" unicode="y" horiz-adv-x="479" 
d="M467 500l-232 -607q-39 -102 -135 -102q-18 0 -33.5 2.5t-22.5 4.5l-7 2v42q35 -6 61 -6q62 0 91 74l32 82l-205 508h54l175 -444l168 444h54z" />
    <glyph glyph-name="z" unicode="z" horiz-adv-x="492" 
d="M438 0h-377v56l320 397h-320v47h374v-55l-320 -397h323v-48z" />
    <glyph glyph-name="braceleft" unicode="{" horiz-adv-x="351" 
d="M331 -116h-26q-68 0 -105 37.5t-37 105.5v179q0 40 -30 65t-73 29v47q43 5 73 29t30 64v179q0 68 37 105.5t105 37.5h26v-42h-26q-51 0 -73.5 -25t-22.5 -76v-179q0 -42 -26.5 -73.5t-67.5 -42.5q41 -11 67.5 -43.5t26.5 -74.5v-179q0 -51 22.5 -76t73.5 -25h26v-42z" />
    <glyph glyph-name="bar" unicode="|" horiz-adv-x="258" 
d="M150 -115h-42v876h42v-876z" />
    <glyph glyph-name="braceright" unicode="}" horiz-adv-x="351" 
d="M291 300q-43 -4 -73 -29t-30 -65v-179q0 -68 -37 -105.5t-105 -37.5h-26v42h26q51 0 73.5 25t22.5 76v179q0 42 26.5 74.5t67.5 43.5q-41 11 -67.5 42.5t-26.5 73.5v179q0 51 -22.5 76t-73.5 25h-26v42h26q68 0 105 -37.5t37 -105.5v-179q0 -40 30 -64t73 -29v-47z" />
    <glyph glyph-name="asciitilde" unicode="~" horiz-adv-x="620" 
d="M537 311q-64 -62 -129 -62q-36 0 -100 30t-96 30q-47 0 -97 -46l-32 37q63 61 130 61q36 0 100 -28q62 -29 95 -29q49 0 97 43z" />
    <glyph glyph-name="nbspace" unicode="&#xa0;" horiz-adv-x="215" 
 />
    <glyph glyph-name="exclamdown" unicode="&#xa1;" horiz-adv-x="307" 
d="M177 429h-76v76h76v-76zM169 -204h-62v194l14 288h34l14 -288v-194z" />
    <glyph glyph-name="cent" unicode="&#xa2;" 
d="M494 270q-5 -74 -53 -125t-122 -58v-87h-41v88q-73 7 -124 58q-68 68 -68 203q0 136 68 204q51 51 124 58v98h41v-98q73 -6 120.5 -55.5t52.5 -124.5h-52q-5 53 -37.5 89t-83.5 42v-425q52 6 85 43t38 90h52zM278 137v425q-53 -6 -88 -42q-53 -55 -53 -171
q0 -117 53 -172q32 -34 88 -40z" />
    <glyph glyph-name="sterling" unicode="&#xa3;" horiz-adv-x="578" 
d="M537 156q-1 -74 -44 -115t-113 -41h-327v55q81 6 81 92v201h-83v45h83v116q0 100 52 150.5t135 50.5q84 0 131.5 -53.5t47.5 -126.5h-48q0 57 -34.5 95.5t-99.5 38.5q-134 0 -134 -157v-114h182v-45h-182v-206q0 -72 -47 -91v-2h243q54 0 81 30t29 77h47z" />
    <glyph glyph-name="currency" unicode="&#xa4;" 
d="M586 31l-40 -39l-69 80q-60 -47 -136 -47q-79 0 -137 47l-69 -80l-40 39l80 70q-55 65 -55 152q0 86 52 149l-77 67l40 40l67 -78q58 49 139 49q79 0 139 -49l66 78l40 -40l-77 -67q53 -64 53 -149q0 -88 -55 -152zM515 253q0 75 -49.5 128.5t-124.5 53.5t-124.5 -53.5
t-49.5 -128.5q0 -76 49.5 -129.5t124.5 -53.5t124.5 53.5t49.5 129.5z" />
    <glyph glyph-name="yen" unicode="&#xa5;" 
d="M545 695l-216 -378h165v-40h-188l-1 -2v-101h189v-41h-189v-133h-50v133h-168v41h168v101l-1 2h-167v40h144l-216 378h55l212 -370l211 370h52z" />
    <glyph glyph-name="brokenbar" unicode="&#xa6;" horiz-adv-x="264" 
d="M156 438h-48v321h48v-321zM156 -50h-48v318h48v-318z" />
    <glyph glyph-name="section" unicode="&#xa7;" horiz-adv-x="545" 
d="M477 152q0 -38 -22 -74.5t-63 -60.5q47 -51 47 -109q0 -61 -45 -106q-49 -47 -120 -47q-75 0 -122 47q-49 50 -49 130h52q0 -63 35 -99q31 -31 84 -31q49 0 80 28q34 29 34 75q0 54 -49 96l-206 180q-60 53 -60 133q0 38 22 74.5t63 60.5q-47 51 -47 109q0 61 45 106
q49 47 120 47q75 0 122 -47q49 -50 49 -128h-52q0 61 -35 97q-31 31 -84 31q-49 0 -80 -28q-34 -29 -34 -75q0 -54 49 -96l206 -180q60 -53 60 -133zM430 147q0 60 -45 100l-195 171q-32 -17 -51 -44t-19 -55q0 -60 45 -100l195 -171q32 17 51 44t19 55z" />
    <glyph glyph-name="dieresis" unicode="&#xa8;" horiz-adv-x="291" 
d="M268 623h-61v63h61v-63zM83 623h-60v63h60v-63z" />
    <glyph glyph-name="copyright" unicode="&#xa9;" horiz-adv-x="880" 
d="M807 354q0 -153 -107 -261.5t-260 -108.5t-260 108.5t-107 261.5t107 261.5t260 108.5t260 -108.5t107 -261.5zM759 354q0 136 -92.5 231t-226.5 95t-226.5 -95t-92.5 -231q0 -135 92.5 -230t226.5 -95t226.5 95t92.5 230zM606 299q-5 -68 -50.5 -107.5t-109.5 -39.5
q-86 0 -132.5 57t-46.5 143t47 143.5t132 57.5q64 0 109.5 -39.5t50.5 -107.5h-51q-4 45 -34 72t-75 27q-65 0 -96 -42t-31 -111q0 -68 31 -110t96 -42q45 0 75 27t34 72h51z" />
    <glyph glyph-name="ordfeminine" unicode="&#xaa;" horiz-adv-x="490" 
d="M418 317q-10 -2 -19 -2q-59 0 -61 70q-15 -33 -51.5 -55.5t-81.5 -22.5q-58 0 -95.5 31.5t-37.5 86.5q0 50 34.5 80t91.5 34l140 10v36q0 86 -100 86q-46 0 -74.5 -21.5t-31.5 -62.5h-40q4 58 43.5 90t102.5 32q102 0 130 -71q10 -27 10 -73v-173q0 -22 5.5 -31.5
t23.5 -9.5q6 0 11 1v-35zM338 495v17l-137 -8q-42 -2 -65 -23t-23 -56q0 -39 26 -60t69 -21q65 0 97.5 45t32.5 106z" />
    <glyph glyph-name="guillemotleft" unicode="&#xab;" horiz-adv-x="524" 
d="M459 98l-34 -26l-162 219l162 219l34 -25l-137 -194zM250 98l-33 -26l-162 219l162 219l33 -25l-136 -194z" />
    <glyph glyph-name="logicalnot" unicode="&#xac;" horiz-adv-x="620" 
d="M527 119h-47v160h-417v46h464v-206z" />
    <glyph glyph-name="registered" unicode="&#xae;" horiz-adv-x="880" 
d="M807 354q0 -153 -107 -261.5t-260 -108.5t-260 108.5t-107 261.5t107 261.5t260 108.5t260 -108.5t107 -261.5zM759 354q0 136 -92.5 231t-226.5 95t-226.5 -95t-92.5 -231q0 -135 92.5 -230t226.5 -95t226.5 95t92.5 230zM587 429q0 -38 -19.5 -68t-56.5 -44l72 -157
h-54l-66 147h-8h-89v-147h-47v393h137q62 0 96.5 -36t34.5 -88zM539 430q0 31 -20.5 53t-62.5 22h-90v-150h89q42 0 63 22t21 53z" />
    <glyph glyph-name="macron" unicode="&#xaf;" horiz-adv-x="296" 
d="M279 616h-262v47h262v-47z" />
    <glyph glyph-name="degree" unicode="&#xb0;" horiz-adv-x="477" 
d="M404 557q0 -68 -48.5 -117t-116.5 -49t-117 49t-49 117t49 117t117 49t116.5 -49t48.5 -117zM358 557q0 51 -34 86.5t-85 35.5t-85.5 -35.5t-34.5 -86.5t34.5 -86.5t85.5 -35.5t85 35.5t34 86.5z" />
    <glyph glyph-name="plusminus" unicode="&#xb1;" horiz-adv-x="570" 
d="M497 352h-188v-197h-47v197h-189v44h189v191h47v-191h188v-44zM497 0h-424v44h424v-44z" />
    <glyph glyph-name="twosuperior" unicode="&#xb2;" horiz-adv-x="411" 
d="M338 351h-260l-1 37l157 143q44 40 44 76q0 31 -22 48t-54 17q-39 0 -59.5 -23t-20.5 -60h-49q0 54 35.5 90.5t93.5 36.5q52 0 88 -29t36 -80q0 -24 -12.5 -48t-25 -37t-36.5 -35l-102 -93h188v-43z" />
    <glyph glyph-name="threesuperior" unicode="&#xb3;" horiz-adv-x="420" 
d="M347 446q0 -36 -19 -61q-33 -48 -117 -48q-54 0 -94 33.5t-44 92.5h46q3 -40 27.5 -62t64.5 -22q54 0 76 27q14 17 14 43q0 27 -20 44t-57 17h-30v42h30q68 0 68 57q0 24 -17 43q-22 23 -62 23q-84 0 -89 -80h-47q4 57 41.5 89t94.5 32q67 0 102 -40q25 -28 25 -64
q0 -26 -15 -49.5t-39 -31.5q61 -20 61 -85z" />
    <glyph glyph-name="acute" unicode="&#xb4;" horiz-adv-x="243" 
d="M221 664l-169 -99l-17 27l158 116z" />
    <glyph glyph-name="mu" unicode="&#xb5;" horiz-adv-x="593" 
d="M494 0h-44l-6 91q-21 -47 -68.5 -75.5t-100.5 -28.5q-85 0 -126 49v-236h-50v370v147v183h50v-183v-144q0 -137 129 -137q86 0 126 61.5t40 152.5v250h50v-500z" />
    <glyph glyph-name="paragraph" unicode="&#xb6;" horiz-adv-x="674" 
d="M589 660h-100v-785h-49v785h-139v-785h-49v477q-74 0 -125.5 52t-51.5 125q0 74 52 126.5t125 52.5h337v-48z" />
    <glyph glyph-name="periodcentered" unicode="&#xb7;" horiz-adv-x="284" 
d="M178 255h-88v90h88v-90z" />
    <glyph glyph-name="cedilla" unicode="&#xb8;" horiz-adv-x="174" 
d="M146 -58l-66 -160l-53 25l72 135h47z" />
    <glyph glyph-name="onesuperior" unicode="&#xb9;" horiz-adv-x="311" 
d="M208 345h-47v308l-98 -74v54l100 76h45v-364z" />
    <glyph glyph-name="ordmasculine" unicode="&#xba;" horiz-adv-x="490" 
d="M410 507q0 -104 -52 -156q-45 -45 -112 -45q-68 0 -113 45q-52 52 -52 156t52 156q45 45 113 45q67 0 112 -45q52 -52 52 -156zM369 507q0 88 -40 129q-31 33 -83 33q-54 0 -85 -33q-39 -40 -39 -129t39 -129q30 -32 85 -32q53 0 83 32q40 41 40 129z" />
    <glyph glyph-name="guillemotright" unicode="&#xbb;" horiz-adv-x="524" 
d="M469 291l-162 -219l-34 26l137 193l-137 194l34 25zM260 291l-161 -219l-34 26l137 193l-137 194l34 25z" />
    <glyph glyph-name="onequarter" unicode="&#xbc;" horiz-adv-x="849" 
d="M776 81h-64v-81h-47v81h-186v49l157 241h54l-163 -246h138v83h47v-83h64v-44zM707 694l-518 -706l-35 27l517 704zM248 345h-47v308l-98 -74v54l100 76h45v-364z" />
    <glyph glyph-name="onehalf" unicode="&#xbd;" horiz-adv-x="919" 
d="M806 0h-260v37l156 144q45 43 45 76q0 31 -21.5 47.5t-54.5 16.5q-39 0 -60 -23t-21 -60h-48q0 54 35.5 91t93.5 37q52 0 88 -29t36 -80q0 -24 -12 -47.5t-25 -37.5t-37 -35l-103 -93h188v-44zM704 694l-518 -706l-35 27l517 704zM243 345h-47v308l-98 -74v54l100 76h45
v-364z" />
    <glyph glyph-name="threequarters" unicode="&#xbe;" horiz-adv-x="891" 
d="M818 81h-64v-81h-47v81h-186v49l157 241h54l-163 -246h138v83h47v-83h64v-44zM752 694l-518 -706l-35 27l517 704zM350 446q0 -36 -19 -61q-33 -48 -117 -48q-54 0 -94 33.5t-44 92.5h46q3 -40 27.5 -62t64.5 -22q54 0 76 27q14 17 14 43q0 27 -20 44t-57 17h-30v42h30
q68 0 68 57q0 24 -17 43q-22 23 -62 23q-84 0 -89 -80h-47q4 57 41.5 89t94.5 32q67 0 102 -40q25 -28 25 -64q0 -26 -15 -49.5t-39 -31.5q61 -20 61 -85z" />
    <glyph glyph-name="questiondown" unicode="&#xbf;" horiz-adv-x="488" 
d="M283 426h-79v78h79v-78zM448 -11q0 -95 -60 -152.5t-157 -57.5q-93 0 -150 60q-51 53 -51 123q0 110 106 178q51 32 66.5 62.5t15.5 93.5h52q0 -77 -23 -117.5t-89 -84.5q-72 -48 -72 -129q0 -62 40.5 -98.5t104.5 -36.5q77 0 119.5 41.5t42.5 117.5h55z" />
    <glyph glyph-name="Agrave" unicode="&#xc0;" horiz-adv-x="608" 
d="M394 817l-18 -29l-176 105l29 47zM600 0h-53l-72 187h-343l-70 -187h-54l269 709h51zM456 236l-154 401l-151 -401h305z" />
    <glyph glyph-name="Aacute" unicode="&#xc1;" horiz-adv-x="608" 
d="M600 0h-53l-72 187h-343l-70 -187h-54l269 709h51zM456 236l-154 401l-151 -401h305zM388 867l-169 -99l-17 27l158 116z" />
    <glyph glyph-name="Acircumflex" unicode="&#xc2;" horiz-adv-x="608" 
d="M600 0h-53l-72 187h-343l-70 -187h-54l269 709h51zM456 236l-154 401l-151 -401h305zM441 790l-31 -27l-111 131l-110 -131l-31 27l125 143h33z" />
    <glyph glyph-name="Atilde" unicode="&#xc3;" horiz-adv-x="608" 
d="M442 838q-44 -42 -85 -42q-26 0 -69 21.5t-64 21.5q-26 0 -55 -25l-24 26q47 43 86 43q27 0 68 -21.5t62 -21.5q29 0 57 25zM600 0h-53l-72 187h-343l-70 -187h-54l269 709h51zM456 236l-154 401l-151 -401h305z" />
    <glyph glyph-name="Adieresis" unicode="&#xc4;" horiz-adv-x="608" 
d="M600 0h-53l-72 187h-343l-70 -187h-54l269 709h51zM456 236l-154 401l-151 -401h305zM423 793h-61v63h61v-63zM238 793h-60v63h60v-63z" />
    <glyph glyph-name="Aring" unicode="&#xc5;" horiz-adv-x="608" 
d="M600 0h-53l-72 187h-343l-70 -187h-54l257 678q-33 11 -53 39t-20 66q0 48 30.5 78.5t81.5 30.5t81.5 -30.5t30.5 -78.5q0 -38 -21 -66.5t-55 -39.5zM376 782q0 31 -20 52.5t-52 21.5t-52 -21.5t-20 -52.5t20 -52t52 -21t52 21t20 52zM456 236l-154 401l-151 -401h305z
" />
    <glyph glyph-name="AE" unicode="&#xc6;" horiz-adv-x="887" 
d="M833 0h-399v198h-292l-86 -198h-56l314 709h519v-48h-348v-258h298v-49h-298v-305h348v-49zM434 246v415h-89l-181 -415h270z" />
    <glyph glyph-name="Ccedilla" unicode="&#xc7;" horiz-adv-x="623" 
d="M580 217q-8 -100 -78 -165t-174 -65q-110 0 -187 77q-51 52 -67 123.5t-16 167.5t16 167t67 123q77 77 187 77q104 0 174 -65t78 -165h-54q-7 80 -61 129.5t-137 49.5q-90 0 -149 -61q-30 -31 -45.5 -79t-18.5 -84.5t-3 -91.5q0 -54 3 -91.5t19 -85.5t46 -79
q59 -61 148 -61q83 0 137 49.5t61 129.5h54zM363 -48l-66 -160l-53 25l72 135h47z" />
    <glyph glyph-name="Egrave" unicode="&#xc8;" horiz-adv-x="616" 
d="M562 0h-454v709h454v-50h-401v-260h353v-50h-353v-299h401v-50zM418 796l-17 -27l-168 99l27 44z" />
    <glyph glyph-name="Eacute" unicode="&#xc9;" horiz-adv-x="616" 
d="M562 0h-454v709h454v-50h-401v-260h353v-50h-353v-299h401v-50zM423 867l-169 -99l-17 27l158 116z" />
    <glyph glyph-name="Ecircumflex" unicode="&#xca;" horiz-adv-x="616" 
d="M562 0h-454v709h454v-50h-401v-260h353v-50h-353v-299h401v-50zM470 795l-31 -27l-111 131l-110 -131l-31 27l125 143h33z" />
    <glyph glyph-name="Edieresis" unicode="&#xcb;" horiz-adv-x="616" 
d="M562 0h-454v709h454v-50h-401v-260h353v-50h-353v-299h401v-50zM451 813h-61v63h61v-63zM266 813h-60v63h60v-63z" />
    <glyph glyph-name="Igrave" unicode="&#xcc;" horiz-adv-x="269" 
d="M161 0h-53v709h53v-709zM218 791l-17 -27l-168 99l27 44z" />
    <glyph glyph-name="Iacute" unicode="&#xcd;" horiz-adv-x="269" 
d="M161 0h-53v709h53v-709zM226 867l-169 -99l-17 27l158 116z" />
    <glyph glyph-name="Icircumflex" unicode="&#xce;" horiz-adv-x="269" 
d="M161 0h-53v709h53v-709zM278 790l-31 -27l-111 131l-110 -131l-31 27l125 143h33z" />
    <glyph glyph-name="Idieresis" unicode="&#xcf;" horiz-adv-x="269" 
d="M233 815h-61v63h61v-63zM94 815h-60v63h60v-63zM161 0h-53v709h53v-709z" />
    <glyph glyph-name="Eth" unicode="&#xd0;" horiz-adv-x="681" 
d="M623 355q0 -94 -16.5 -164t-69.5 -121q-72 -70 -179 -70h-235v347h-76v42h76v320h235q107 0 179 -70q53 -51 69.5 -121t16.5 -163zM570 355q0 83 -13.5 145.5t-57.5 104.5q-56 53 -141 53h-183v-269h170v-42h-170v-296h183q85 0 141 53q44 43 57.5 105.5t13.5 145.5z" />
    <glyph glyph-name="Ntilde" unicode="&#xd1;" horiz-adv-x="738" 
d="M630 0h-59l-411 628v-628h-52v709h59l412 -627v627h51v-709zM507 810q-46 -40 -82 -40q-24 0 -65 20.5t-62 20.5q-25 0 -52 -23l-23 24q45 41 82 41q25 0 64.5 -20.5t59.5 -20.5q28 0 54 23z" />
    <glyph glyph-name="Ograve" unicode="&#xd2;" horiz-adv-x="658" 
d="M600 355q0 -96 -17.5 -170t-71.5 -126q-75 -72 -182 -72t-182 72q-54 52 -71.5 126t-17.5 170t17.5 169.5t71.5 125.5q75 72 182 72t182 -72q54 -52 71.5 -125.5t17.5 -169.5zM546 355q0 55 -3 92.5t-20.5 87.5t-49.5 81q-57 55 -144 55t-144 -55q-32 -31 -49.5 -81
t-20.5 -87.5t-3 -92.5q0 -56 3 -93t20.5 -87.5t49.5 -81.5q57 -55 144 -55t144 55q32 31 49.5 81.5t20.5 87.5t3 93zM416 796l-17 -27l-168 99l27 44z" />
    <glyph glyph-name="Oacute" unicode="&#xd3;" horiz-adv-x="658" 
d="M600 355q0 -96 -17.5 -170t-71.5 -126q-75 -72 -182 -72t-182 72q-54 52 -71.5 126t-17.5 170t17.5 169.5t71.5 125.5q75 72 182 72t182 -72q54 -52 71.5 -125.5t17.5 -169.5zM546 355q0 55 -3 92.5t-20.5 87.5t-49.5 81q-57 55 -144 55t-144 -55q-32 -31 -49.5 -81
t-20.5 -87.5t-3 -92.5q0 -56 3 -93t20.5 -87.5t49.5 -81.5q57 -55 144 -55t144 55q32 31 49.5 81.5t20.5 87.5t3 93zM416 872l-169 -99l-17 27l158 116z" />
    <glyph glyph-name="Ocircumflex" unicode="&#xd4;" horiz-adv-x="658" 
d="M600 355q0 -96 -17.5 -170t-71.5 -126q-75 -72 -182 -72t-182 72q-54 52 -71.5 126t-17.5 170t17.5 169.5t71.5 125.5q75 72 182 72t182 -72q54 -52 71.5 -125.5t17.5 -169.5zM546 355q0 55 -3 92.5t-20.5 87.5t-49.5 81q-57 55 -144 55t-144 -55q-32 -31 -49.5 -81
t-20.5 -87.5t-3 -92.5q0 -56 3 -93t20.5 -87.5t49.5 -81.5q57 -55 144 -55t144 55q32 31 49.5 81.5t20.5 87.5t3 93zM464 790l-31 -27l-111 131l-110 -131l-31 27l125 143h33z" />
    <glyph glyph-name="Otilde" unicode="&#xd5;" horiz-adv-x="658" 
d="M469 837q-46 -42 -86 -42q-25 0 -68 21.5t-65 21.5q-26 0 -55 -25l-23 26q47 43 85 43q27 0 68.5 -21.5t61.5 -21.5q30 0 57 24zM600 355q0 -96 -17.5 -170t-71.5 -126q-75 -72 -182 -72t-182 72q-54 52 -71.5 126t-17.5 170t17.5 169.5t71.5 125.5q75 72 182 72t182 -72
q54 -52 71.5 -125.5t17.5 -169.5zM546 355q0 55 -3 92.5t-20.5 87.5t-49.5 81q-57 55 -144 55t-144 -55q-32 -31 -49.5 -81t-20.5 -87.5t-3 -92.5q0 -56 3 -93t20.5 -87.5t49.5 -81.5q57 -55 144 -55t144 55q32 31 49.5 81.5t20.5 87.5t3 93z" />
    <glyph glyph-name="Odieresis" unicode="&#xd6;" horiz-adv-x="658" 
d="M600 355q0 -96 -17.5 -170t-71.5 -126q-75 -72 -182 -72t-182 72q-54 52 -71.5 126t-17.5 170t17.5 169.5t71.5 125.5q75 72 182 72t182 -72q54 -52 71.5 -125.5t17.5 -169.5zM546 355q0 55 -3 92.5t-20.5 87.5t-49.5 81q-57 55 -144 55t-144 -55q-32 -31 -49.5 -81
t-20.5 -87.5t-3 -92.5q0 -56 3 -93t20.5 -87.5t49.5 -81.5q57 -55 144 -55t144 55q32 31 49.5 81.5t20.5 87.5t3 93zM446 795h-61v63h61v-63zM261 795h-60v63h60v-63z" />
    <glyph glyph-name="multiply" unicode="&#xd7;" horiz-adv-x="675" 
d="M602 63l-31 -31l-234 234l-233 -234l-31 31l234 234l-234 233l31 31l233 -233l234 233l31 -31l-234 -233z" />
    <glyph glyph-name="Oslash" unicode="&#xd8;" horiz-adv-x="658" 
d="M600 355q0 -96 -17.5 -170t-71.5 -126q-75 -72 -182 -72q-68 0 -127 31l-39 -87l-39 17l42 94q-14 12 -19 17q-54 52 -71.5 126t-17.5 170t17.5 169.5t71.5 125.5q75 72 182 72q71 0 127 -32l35 78l39 -18l-38 -84q10 -7 19 -16q54 -52 71.5 -125.5t17.5 -169.5zM546 355
q0 55 -3 92.5t-20.5 87.5t-49.5 81l-2 2l-248 -553q47 -27 106 -27q87 0 144 55q32 31 49.5 81.5t20.5 87.5t3 93zM435 644q-46 27 -106 27q-87 0 -144 -55q-32 -31 -49.5 -81t-20.5 -87.5t-3 -92.5q0 -41 1.5 -68.5t8 -67t22.5 -71.5t41 -55l3 -3z" />
    <glyph glyph-name="Ugrave" unicode="&#xd9;" horiz-adv-x="693" 
d="M598 260q0 -122 -64.5 -197.5t-187.5 -75.5t-187 75.5t-64 197.5v449h52v-450q0 -98 50 -160t149 -62t149.5 62t50.5 160v450h52v-449zM418 791l-17 -27l-168 99l27 44z" />
    <glyph glyph-name="Uacute" unicode="&#xda;" horiz-adv-x="693" 
d="M598 260q0 -122 -64.5 -197.5t-187.5 -75.5t-187 75.5t-64 197.5v449h52v-450q0 -98 50 -160t149 -62t149.5 62t50.5 160v450h52v-449zM440 867l-169 -99l-17 27l158 116z" />
    <glyph glyph-name="Ucircumflex" unicode="&#xdb;" horiz-adv-x="693" 
d="M598 260q0 -122 -64.5 -197.5t-187.5 -75.5t-187 75.5t-64 197.5v449h52v-450q0 -98 50 -160t149 -62t149.5 62t50.5 160v450h52v-449zM484 790l-31 -27l-111 131l-110 -131l-31 27l125 143h33z" />
    <glyph glyph-name="Udieresis" unicode="&#xdc;" horiz-adv-x="693" 
d="M598 260q0 -122 -64.5 -197.5t-187.5 -75.5t-187 75.5t-64 197.5v449h52v-450q0 -98 50 -160t149 -62t149.5 62t50.5 160v450h52v-449zM469 794h-61v63h61v-63zM284 794h-60v63h60v-63z" />
    <glyph glyph-name="Yacute" unicode="&#xdd;" horiz-adv-x="545" 
d="M543 709l-245 -428v-281h-51v281l-245 428h56l216 -377l216 377h53zM369 857l-169 -99l-17 27l158 116z" />
    <glyph glyph-name="Thorn" unicode="&#xde;" horiz-adv-x="598" 
d="M570 361q0 -104 -64 -157t-170 -53h-176v-151h-52v709h52v-139h176q107 0 170.5 -53t63.5 -156zM516 361q0 80 -49 119t-131 39h-176v-317h176q83 0 131.5 39.5t48.5 119.5z" />
    <glyph glyph-name="germandbls" unicode="&#xdf;" horiz-adv-x="593" 
d="M549 208q0 -96 -64 -155t-161 -59q-36 0 -74 6v48q40 -5 70 -5q77 0 126.5 43t49.5 119q0 79 -48.5 120.5t-129.5 41.5h-40v49h40q64 0 96.5 35.5t32.5 95.5q0 58 -41 93.5t-97 35.5q-70 0 -106 -43.5t-36 -115.5v-517h-50v452h-89v48h89v17q0 92 50.5 149.5t141.5 57.5
q81 0 135.5 -49.5t54.5 -128.5q0 -47 -24 -90.5t-66 -57.5q65 -17 102.5 -69.5t37.5 -120.5z" />
    <glyph glyph-name="agrave" unicode="&#xe0;" horiz-adv-x="561" 
d="M513 0q-18 -3 -24 -3q-79 0 -79 98q-20 -51 -70 -79.5t-110 -28.5q-75 0 -123.5 42t-48.5 112q0 65 46 104.5t122 44.5l184 13v49q0 114 -132 114q-62 0 -101 -28t-43 -82h-50q5 74 58 115.5t136 41.5q57 0 103.5 -22t65.5 -70q13 -34 13 -96v-228q0 -28 7.5 -41
t31.5 -13q9 0 14 1v-44zM410 231v26l-179 -11q-56 -4 -89 -32t-33 -73q0 -52 34.5 -80t90.5 -28q88 0 132 58.5t44 139.5zM183 668l169 -100l17 27l-158 117z" />
    <glyph glyph-name="aacute" unicode="&#xe1;" horiz-adv-x="561" 
d="M513 0q-18 -3 -24 -3q-79 0 -79 98q-20 -51 -70 -79.5t-110 -28.5q-75 0 -123.5 42t-48.5 112q0 65 46 104.5t122 44.5l184 13v49q0 114 -132 114q-62 0 -101 -28t-43 -82h-50q5 74 58 115.5t136 41.5q57 0 103.5 -22t65.5 -70q13 -34 13 -96v-228q0 -28 7.5 -41
t31.5 -13q9 0 14 1v-44zM410 231v26l-179 -11q-56 -4 -89 -32t-33 -73q0 -52 34.5 -80t90.5 -28q88 0 132 58.5t44 139.5zM366 668l-169 -99l-17 27l158 116z" />
    <glyph glyph-name="acircumflex" unicode="&#xe2;" horiz-adv-x="561" 
d="M513 0q-18 -3 -24 -3q-79 0 -79 98q-20 -51 -70 -79.5t-110 -28.5q-75 0 -123.5 42t-48.5 112q0 65 46 104.5t122 44.5l184 13v49q0 114 -132 114q-62 0 -101 -28t-43 -82h-50q5 74 58 115.5t136 41.5q57 0 103.5 -22t65.5 -70q13 -34 13 -96v-228q0 -28 7.5 -41
t31.5 -13q9 0 14 1v-44zM410 231v26l-179 -11q-56 -4 -89 -32t-33 -73q0 -52 34.5 -80t90.5 -28q88 0 132 58.5t44 139.5zM421 589l-31 -27l-111 131l-110 -131l-31 27l125 143h33z" />
    <glyph glyph-name="atilde" unicode="&#xe3;" horiz-adv-x="561" 
d="M513 0q-18 -3 -24 -3q-79 0 -79 98q-20 -51 -70 -79.5t-110 -28.5q-75 0 -123.5 42t-48.5 112q0 65 46 104.5t122 44.5l184 13v49q0 114 -132 114q-62 0 -101 -28t-43 -82h-50q5 74 58 115.5t136 41.5q57 0 103.5 -22t65.5 -70q13 -34 13 -96v-228q0 -28 7.5 -41
t31.5 -13q9 0 14 1v-44zM410 231v26l-179 -11q-56 -4 -89 -32t-33 -73q0 -52 34.5 -80t90.5 -28q88 0 132 58.5t44 139.5zM412 647q-46 -40 -82 -40q-24 0 -65 20.5t-62 20.5q-25 0 -52 -23l-23 24q45 41 82 41q25 0 64.5 -20.5t59.5 -20.5q28 0 54 23z" />
    <glyph glyph-name="adieresis" unicode="&#xe4;" horiz-adv-x="561" 
d="M513 0q-18 -3 -24 -3q-79 0 -79 98q-20 -51 -70 -79.5t-110 -28.5q-75 0 -123.5 42t-48.5 112q0 65 46 104.5t122 44.5l184 13v49q0 114 -132 114q-62 0 -101 -28t-43 -82h-50q5 74 58 115.5t136 41.5q57 0 103.5 -22t65.5 -70q13 -34 13 -96v-228q0 -28 7.5 -41
t31.5 -13q9 0 14 1v-44zM410 231v26l-179 -11q-56 -4 -89 -32t-33 -73q0 -52 34.5 -80t90.5 -28q88 0 132 58.5t44 139.5zM403 623h-61v63h61v-63zM218 623h-60v63h60v-63z" />
    <glyph glyph-name="aring" unicode="&#xe5;" horiz-adv-x="561" 
d="M513 0q-18 -3 -24 -3q-79 0 -79 98q-20 -51 -70 -79.5t-110 -28.5q-75 0 -123.5 42t-48.5 112q0 65 46 104.5t122 44.5l184 13v49q0 114 -132 114q-62 0 -101 -28t-43 -82h-50q5 74 58 115.5t136 41.5q57 0 103.5 -22t65.5 -70q13 -34 13 -96v-228q0 -28 7.5 -41
t31.5 -13q9 0 14 1v-44zM410 231v26l-179 -11q-56 -4 -89 -32t-33 -73q0 -52 34.5 -80t90.5 -28q88 0 132 58.5t44 139.5zM382 670q0 -46 -31 -75.5t-76 -29.5t-76 29.5t-31 75.5t29 75.5t78 29.5t78 -29.5t29 -75.5zM343 670q0 29 -18.5 49.5t-49.5 20.5t-50 -20.5
t-19 -49.5t19 -49.5t50 -20.5t49.5 20.5t18.5 49.5z" />
    <glyph glyph-name="ae" unicode="&#xe6;" horiz-adv-x="852" 
d="M802 241h-356v-23q0 -79 40.5 -132t117.5 -53q55 0 90.5 30.5t46.5 86.5h51q-13 -75 -63 -119t-125 -44q-133 0 -184 127q-22 -59 -73 -91.5t-120 -32.5q-73 0 -121 41t-48 109q0 63 48 105t121 42h168v65q0 54 -34 84t-95 30q-59 0 -95.5 -29.5t-40.5 -83.5h-50
q5 74 54.5 117t131.5 43q53 0 100.5 -23.5t66.5 -67.5q52 91 167 91q80 0 132 -50q70 -67 70 -205v-17zM751 287q-2 93 -52 141q-41 38 -99 38q-74 0 -112.5 -49.5t-39.5 -129.5h303zM395 214v27h-165q-54 0 -88 -28.5t-34 -72.5q0 -50 34 -76.5t87 -26.5q78 0 122 51
t44 126z" />
    <glyph glyph-name="ccedilla" unicode="&#xe7;" horiz-adv-x="512" 
d="M468 158q-10 -74 -64 -122.5t-131 -48.5q-88 0 -147 59q-70 70 -70 204t70 204q59 59 147 59q78 0 131 -46.5t62 -122.5h-52q-8 53 -46.5 86.5t-94.5 33.5q-70 0 -111 -43q-55 -57 -55 -171q0 -115 55 -172q40 -42 111 -42q56 0 94.5 34.5t47.5 87.5h53zM319 -48
l-68 -166l-55 26l75 140h48z" />
    <glyph glyph-name="egrave" unicode="&#xe8;" horiz-adv-x="539" 
d="M489 271q0 -6 -0.5 -16.5t-0.5 -16.5h-382q2 -90 52 -150q45 -53 121 -53q67 0 109 44q30 32 38 71h52q-10 -60 -56 -105q-58 -58 -143 -58q-97 0 -159 71q-64 75 -64 190q0 111 49 178q64 87 170 87q97 0 155.5 -71.5t58.5 -170.5zM438 284q-2 75 -46 128.5t-117 53.5
q-75 0 -121.5 -52.5t-46.5 -129.5h331zM183 669l169 -99l17 27l-158 116z" />
    <glyph glyph-name="eacute" unicode="&#xe9;" horiz-adv-x="539" 
d="M489 271q0 -6 -0.5 -16.5t-0.5 -16.5h-382q2 -90 52 -150q45 -53 121 -53q67 0 109 44q30 32 38 71h52q-10 -60 -56 -105q-58 -58 -143 -58q-97 0 -159 71q-64 75 -64 190q0 111 49 178q64 87 170 87q97 0 155.5 -71.5t58.5 -170.5zM438 284q-2 75 -46 128.5t-117 53.5
q-75 0 -121.5 -52.5t-46.5 -129.5h331zM370 666l-169 -99l-17 27l158 116z" />
    <glyph glyph-name="ecircumflex" unicode="&#xea;" horiz-adv-x="539" 
d="M489 271q0 -6 -0.5 -16.5t-0.5 -16.5h-382q2 -90 52 -150q45 -53 121 -53q67 0 109 44q30 32 38 71h52q-10 -60 -56 -105q-58 -58 -143 -58q-97 0 -159 71q-64 75 -64 190q0 111 49 178q64 87 170 87q97 0 155.5 -71.5t58.5 -170.5zM438 284q-2 75 -46 128.5t-117 53.5
q-75 0 -121.5 -52.5t-46.5 -129.5h331zM419 589l-31 -27l-111 131l-110 -131l-31 27l125 143h33z" />
    <glyph glyph-name="edieresis" unicode="&#xeb;" horiz-adv-x="539" 
d="M489 271q0 -6 -0.5 -16.5t-0.5 -16.5h-382q2 -90 52 -150q45 -53 121 -53q67 0 109 44q30 32 38 71h52q-10 -60 -56 -105q-58 -58 -143 -58q-97 0 -159 71q-64 75 -64 190q0 111 49 178q64 87 170 87q97 0 155.5 -71.5t58.5 -170.5zM438 284q-2 75 -46 128.5t-117 53.5
q-75 0 -121.5 -52.5t-46.5 -129.5h331zM400 623h-61v63h61v-63zM215 623h-60v63h60v-63z" />
    <glyph glyph-name="igrave" unicode="&#xec;" horiz-adv-x="260" 
d="M156 0h-52v500h52v-500zM24 697l169 -99l17 27l-158 116z" />
    <glyph glyph-name="iacute" unicode="&#xed;" horiz-adv-x="260" 
d="M156 0h-52v500h52v-500zM229 697l-169 -99l-17 27l158 116z" />
    <glyph glyph-name="icircumflex" unicode="&#xee;" horiz-adv-x="260" 
d="M156 0h-52v500h52v-500zM272 613l-31 -27l-111 131l-110 -131l-32 27l125 143h33z" />
    <glyph glyph-name="idieresis" unicode="&#xef;" horiz-adv-x="260" 
d="M232 647h-62v63h62v-63zM86 647h-60v63h60v-63zM156 0h-52v500h52v-500z" />
    <glyph glyph-name="eth" unicode="&#xf0;" horiz-adv-x="542" 
d="M486 250q0 -136 -68 -204q-59 -59 -147 -59t-147 59q-68 68 -68 204t68 204q59 59 147 59q39 0 75 -13l-56 98h-125v40h102l-48 84h57l47 -84h101v-40h-78l111 -197v-1q29 -58 29 -150zM435 250q0 116 -53 171q-41 43 -111 43t-111 -43q-53 -55 -53 -171q0 -117 53 -172
q40 -42 111 -42t111 42q53 55 53 172z" />
    <glyph glyph-name="ntilde" unicode="&#xf1;" horiz-adv-x="583" 
d="M494 0h-50v327q0 137 -129 137q-86 0 -126 -61.5t-40 -152.5v-250h-50v500h44l6 -91q21 47 68.5 75.5t100.5 28.5q85 0 130.5 -49t45.5 -134v-330zM433 650q-46 -40 -82 -40q-24 0 -65 20.5t-62 20.5q-25 0 -52 -23l-23 24q45 41 82 41q25 0 64.5 -20.5t59.5 -20.5
q28 0 54 23z" />
    <glyph glyph-name="ograve" unicode="&#xf2;" horiz-adv-x="546" 
d="M490 250q0 -132 -71 -203q-60 -60 -146 -60t-146 60q-71 71 -71 203t71 203q60 60 146 60t146 -60q71 -71 71 -203zM439 250q0 112 -56 170q-42 44 -110 44t-110 -44q-56 -58 -56 -170t56 -170q42 -44 110 -44t110 44q56 58 56 170zM361 594l-17 -27l-168 99l27 44z" />
    <glyph glyph-name="oacute" unicode="&#xf3;" horiz-adv-x="546" 
d="M490 250q0 -132 -71 -203q-60 -60 -146 -60t-146 60q-71 71 -71 203t71 203q60 60 146 60t146 -60q71 -71 71 -203zM439 250q0 112 -56 170q-42 44 -110 44t-110 -44q-56 -58 -56 -170t56 -170q42 -44 110 -44t110 44q56 58 56 170zM373 667l-169 -99l-17 27l158 116z
" />
    <glyph glyph-name="ocircumflex" unicode="&#xf4;" horiz-adv-x="546" 
d="M490 250q0 -132 -71 -203q-60 -60 -146 -60t-146 60q-71 71 -71 203t71 203q60 60 146 60t146 -60q71 -71 71 -203zM439 250q0 112 -56 170q-42 44 -110 44t-110 -44q-56 -58 -56 -170t56 -170q42 -44 110 -44t110 44q56 58 56 170zM416 589l-31 -27l-111 131l-110 -131
l-31 27l125 143h33z" />
    <glyph glyph-name="otilde" unicode="&#xf5;" horiz-adv-x="546" 
d="M490 250q0 -132 -71 -203q-60 -60 -146 -60t-146 60q-71 71 -71 203t71 203q60 60 146 60t146 -60q71 -71 71 -203zM439 250q0 112 -56 170q-42 44 -110 44t-110 -44q-56 -58 -56 -170t56 -170q42 -44 110 -44t110 44q56 58 56 170zM416 656q-45 -39 -82 -39
q-24 0 -65 20t-62 20q-25 0 -52 -23l-23 24q45 41 82 41q26 0 65 -20.5t59 -20.5q27 0 54 24z" />
    <glyph glyph-name="odieresis" unicode="&#xf6;" horiz-adv-x="546" 
d="M396 623h-61v63h61v-63zM211 623h-60v63h60v-63zM490 250q0 -132 -71 -203q-60 -60 -146 -60t-146 60q-71 71 -71 203t71 203q60 60 146 60t146 -60q71 -71 71 -203zM439 250q0 112 -56 170q-42 44 -110 44t-110 -44q-56 -58 -56 -170t56 -170q42 -44 110 -44t110 44
q56 58 56 170z" />
    <glyph glyph-name="divide" unicode="&#xf7;" horiz-adv-x="653" 
d="M363 472h-79v84h79v-84zM570 277h-487v46h487v-46zM363 49h-79v83h79v-83z" />
    <glyph glyph-name="oslash" unicode="&#xf8;" horiz-adv-x="546" 
d="M490 250q0 -132 -71 -203q-60 -60 -146 -60q-44 0 -83 17l-36 -81l-36 16l38 84q-14 9 -29 24q-71 71 -71 203t71 203q60 60 146 60q52 0 94 -22l37 83l37 -16l-40 -89q12 -10 18 -16q71 -71 71 -203zM439 250q0 114 -56 170l-3 3l-170 -375q27 -12 63 -12q68 0 110 44
q56 58 56 170zM347 447q-32 17 -74 17q-68 0 -110 -44q-56 -58 -56 -170t56 -170q8 -8 13 -12z" />
    <glyph glyph-name="ugrave" unicode="&#xf9;" horiz-adv-x="583" 
d="M484 1h-44l-6 91q-21 -47 -68 -75.5t-101 -28.5q-85 0 -130.5 49t-45.5 134v330h50v-327q0 -137 129 -137q86 0 126 61.5t40 152.5v250h50v-500zM186 666l169 -99l17 27l-158 116z" />
    <glyph glyph-name="uacute" unicode="&#xfa;" horiz-adv-x="583" 
d="M484 1h-44l-6 91q-21 -47 -68 -75.5t-101 -28.5q-85 0 -130.5 49t-45.5 134v330h50v-327q0 -137 129 -137q86 0 126 61.5t40 152.5v250h50v-500zM389 666l-169 -99l-17 27l158 116z" />
    <glyph glyph-name="ucircumflex" unicode="&#xfb;" horiz-adv-x="583" 
d="M484 1h-44l-6 91q-21 -47 -68 -75.5t-101 -28.5q-85 0 -130.5 49t-45.5 134v330h50v-327q0 -137 129 -137q86 0 126 61.5t40 152.5v250h50v-500zM421 589l-31 -27l-111 131l-110 -131l-31 27l125 143h33z" />
    <glyph glyph-name="udieresis" unicode="&#xfc;" horiz-adv-x="583" 
d="M484 1h-44l-6 91q-21 -47 -68 -75.5t-101 -28.5q-85 0 -130.5 49t-45.5 134v330h50v-327q0 -137 129 -137q86 0 126 61.5t40 152.5v250h50v-500zM407 623h-61v63h61v-63zM222 623h-60v63h60v-63z" />
    <glyph glyph-name="yacute" unicode="&#xfd;" horiz-adv-x="479" 
d="M467 500l-232 -607q-39 -102 -135 -102q-18 0 -33.5 2.5t-22.5 4.5l-7 2v42q35 -6 61 -6q62 0 91 74l32 82l-205 508h54l175 -444l168 444h54zM344 656l-169 -99l-17 27l158 116z" />
    <glyph glyph-name="thorn" unicode="&#xfe;" horiz-adv-x="581" 
d="M527 251q0 -136 -74 -209q-57 -55 -139 -55q-53 0 -97.5 25.5t-66.5 71.5v-285h-51v452v470h51v-305q22 46 66.5 71.5t97.5 25.5q82 0 139 -55q74 -73 74 -207zM477 251q0 111 -61 172q-41 41 -102 41q-87 0 -125.5 -60.5t-38.5 -152.5q0 -93 38.5 -154t125.5 -61
q61 0 102 41q61 61 61 174z" />
    <glyph glyph-name="ydieresis" unicode="&#xff;" horiz-adv-x="479" 
d="M467 500l-232 -607q-39 -102 -135 -102q-18 0 -33.5 2.5t-22.5 4.5l-7 2v42q35 -6 61 -6q62 0 91 74l32 82l-205 508h54l175 -444l168 444h54zM365 623h-61v63h61v-63zM180 623h-60v63h60v-63z" />
    <glyph glyph-name="dotlessi" unicode="&#x131;" horiz-adv-x="260" 
d="M156 0h-52v500h52v-500z" />
    <glyph glyph-name="Lslash" unicode="&#x141;" horiz-adv-x="563" 
d="M545 0h-420v313l-72 -45l-22 36l94 58v347h52v-314l156 96l22 -36l-178 -110v-296h368v-49z" />
    <glyph glyph-name="lslash" unicode="&#x142;" horiz-adv-x="318" 
d="M285 478l-116 -72v-304q0 -60 52 -60q29 0 43 2v-44q-22 -6 -45 -6q-100 0 -100 106v275l-66 -41l-22 36l88 55v297h50v-266l94 58z" />
    <glyph glyph-name="OE" unicode="&#x152;" horiz-adv-x="1050" 
d="M996 0h-454v100q-11 -21 -31 -41q-75 -72 -184 -72t-184 72q-54 52 -69.5 124t-15.5 172q0 47 2.5 80t10 75t25.5 77.5t47 62.5q75 72 184 72t184 -72q22 -22 31 -41v100h454v-50h-401v-260h353v-50h-353v-299h401v-50zM542 355q0 45 -1 69.5t-7 65t-21 71.5t-40 55
q-57 55 -146 55t-146 -55q-25 -24 -40 -55t-21 -71.5t-7 -65t-1 -69.5t1 -69.5t7 -65.5t21 -72t40 -55q57 -55 146 -55t146 55q25 24 40 55t21 72t7 65.5t1 69.5z" />
    <glyph glyph-name="oe" unicode="&#x153;" horiz-adv-x="912" 
d="M862 271q0 -6 -0.5 -16.5t-0.5 -16.5h-375q0 -2 -0.5 -6.5t-0.5 -6.5q5 -84 50 -137t120 -53q66 0 106 41q31 32 39 74h52q-10 -63 -57 -108q-55 -55 -140 -55q-94 0 -156 71q-20 23 -36 55q-15 -37 -45 -67q-59 -59 -147 -59t-147 59q-68 68 -68 204t68 204
q59 59 147 59t147 -59q29 -29 44 -64q11 23 21 36q64 87 168 87q109 0 169 -90q42 -63 42 -152zM811 284q-1 77 -42 128q-44 54 -118 54q-76 0 -120 -54q-18 -22 -31.5 -59t-13.5 -69h325zM435 250q0 116 -53 171q-41 43 -111 43t-111 -43q-53 -55 -53 -171q0 -117 53 -172
q40 -42 111 -42t111 42q53 55 53 172z" />
    <glyph glyph-name="Scaron" unicode="&#x160;" horiz-adv-x="622" 
d="M569 192q0 -80 -56 -136q-70 -69 -201 -69q-127 0 -198 76q-56 60 -64 141h54q7 -63 52 -109q57 -58 156 -58q105 0 161 53q42 40 42 102q0 52 -37.5 91t-100.5 47l-132 17q-79 10 -126.5 55.5t-47.5 123.5q0 77 62 134q68 62 175 62q57 0 109.5 -21.5t82.5 -56.5
q49 -57 54 -123h-53q-7 53 -39 90q-50 61 -154 61q-85 0 -135 -43q-48 -43 -48 -103q0 -109 125 -124l134 -17q82 -10 133.5 -64t51.5 -129zM448 895l-122 -140h-33l-122 140l30 26l109 -128l108 128z" />
    <glyph glyph-name="scaron" unicode="&#x161;" horiz-adv-x="512" 
d="M456 139q0 -53 -34 -92q-54 -60 -162 -60q-107 0 -164 64q-39 45 -42 101h51q4 -44 37 -77q41 -40 118 -40q81 0 118 37q27 27 27 64q0 35 -24 60t-68 31l-97 13q-78 9 -113 50q-28 33 -28 79q0 57 43 97q51 47 137 47q101 0 151 -59q36 -43 38 -92h-50q-4 36 -25 60
q-37 44 -114 44q-58 0 -90 -23q-39 -28 -39 -69q0 -34 21.5 -55.5t75.5 -28.5l95 -13q67 -9 102.5 -48.5t35.5 -89.5zM382 684l-112 -129h-30l-112 129l28 24l100 -117l99 117z" />
    <glyph glyph-name="Ydieresis" unicode="&#x178;" horiz-adv-x="545" 
d="M543 709l-245 -428v-281h-51v281l-245 428h56l216 -377l216 377h53zM395 799h-61v63h61v-63zM210 799h-60v63h60v-63z" />
    <glyph glyph-name="Zcaron" unicode="&#x17d;" horiz-adv-x="618" 
d="M566 0h-516v56l451 604h-444v49h504v-56l-452 -604h457v-49zM173 893l31 27l111 -131l110 131l31 -27l-125 -143h-33z" />
    <glyph glyph-name="zcaron" unicode="&#x17e;" horiz-adv-x="492" 
d="M438 0h-377v56l320 397h-320v47h374v-55l-320 -397h323v-48zM377 683l-112 -129h-30l-112 129l28 24l100 -117l99 117z" />
    <glyph glyph-name="florin" unicode="&#x192;" horiz-adv-x="528" 
d="M472 663q-28 7 -57 7q-71 0 -89 -89l-32 -155h151v-45h-160l-34 -169h-1l-42 -208q-26 -126 -135 -126q-21 0 -57 4v46q33 -3 56 -3q71 0 89 88l75 368h-112v45h122l33 163q26 126 136 126q12 0 57 -5v-47z" />
    <glyph glyph-name="circumflex" unicode="&#x2c6;" horiz-adv-x="355" 
d="M319 589l-31 -27l-111 131l-110 -131l-31 27l125 143h33z" />
    <glyph glyph-name="caron" unicode="&#x2c7;" horiz-adv-x="353" 
d="M318 900l-125 -143h-33l-125 143l31 27l111 -131l110 131z" />
    <glyph glyph-name="breve" unicode="&#x2d8;" horiz-adv-x="363" 
d="M328 709q-5 -65 -44.5 -104t-101.5 -39t-101.5 39t-44.5 104h43q5 -48 32 -75t71 -27t71 27t32 75h43z" />
    <glyph glyph-name="dotaccent" unicode="&#x2d9;" horiz-adv-x="275" 
d="M172 639h-69v70h69v-70z" />
    <glyph glyph-name="ring" unicode="&#x2da;" horiz-adv-x="220" 
d="M217 670q0 -46 -31 -75.5t-76 -29.5t-76 29.5t-31 75.5t29 75.5t78 29.5t78 -29.5t29 -75.5zM178 670q0 29 -18.5 49.5t-49.5 20.5t-50 -20.5t-19 -49.5t19 -49.5t50 -20.5t49.5 20.5t18.5 49.5z" />
    <glyph glyph-name="ogonek" unicode="&#x2db;" horiz-adv-x="174" 
d="M146 -193l-53 -25l-65 160h46z" />
    <glyph glyph-name="tilde" unicode="&#x2dc;" horiz-adv-x="360" 
d="M322 650q-46 -40 -82 -40q-24 0 -65 20.5t-62 20.5q-25 0 -52 -23l-23 24q45 41 82 41q25 0 64.5 -20.5t59.5 -20.5q28 0 54 23z" />
    <glyph glyph-name="hungarumlaut" unicode="&#x2dd;" horiz-adv-x="459" 
d="M441 666l-171 -104l-18 27l159 122zM228 666l-171 -104l-18 27l159 122z" />
    <glyph glyph-name="pi" unicode="&#x3c0;" horiz-adv-x="641" 
d="M563 1q-22 -6 -44 -6q-102 0 -102 107v353h-214v-455h-48v455h-82v45h475v-45h-80v-351q0 -62 52 -62q29 0 43 2v-43z" />
    <glyph glyph-name="endash" unicode="&#x2013;" horiz-adv-x="614" 
d="M539 279h-464v46h464v-46z" />
    <glyph glyph-name="emdash" unicode="&#x2014;" horiz-adv-x="1097" 
d="M1022 279h-947v46h947v-46z" />
    <glyph glyph-name="quoteleft" unicode="&#x2018;" horiz-adv-x="233" 
d="M163 691q-32 -17 -44 -37.5t-12 -57.5h55v-90h-92v91q0 86 76 122z" />
    <glyph glyph-name="quoteright" unicode="&#x2019;" horiz-adv-x="213" 
d="M158 618q0 -86 -76 -122l-17 28q32 17 44 37.5t12 57.5h-55v90h92v-91z" />
    <glyph glyph-name="quotesinglbase" unicode="&#x201a;" horiz-adv-x="243" 
d="M168 -1q0 -86 -76 -122l-17 28q32 17 44 37.5t12 57.5h-55v90h92v-91z" />
    <glyph glyph-name="quotedblleft" unicode="&#x201c;" horiz-adv-x="386" 
d="M326 699q-32 -17 -44 -37.5t-12 -57.5h55v-90h-92v91q0 86 76 122zM163 699q-32 -17 -44 -37.5t-12 -57.5h55v-90h-92v91q0 86 76 122z" />
    <glyph glyph-name="quotedblright" unicode="&#x201d;" horiz-adv-x="376" 
d="M321 618q0 -86 -76 -122l-17 28q32 17 44 37.5t12 57.5h-55v90h92v-91zM158 618q0 -86 -76 -122l-17 28q32 17 44 37.5t12 57.5h-55v90h92v-91z" />
    <glyph glyph-name="quotedblbase" unicode="&#x201e;" horiz-adv-x="401" 
d="M326 -1q0 -86 -76 -122l-17 28q32 17 44 37.5t12 57.5h-55v90h92v-91zM163 -1q0 -86 -76 -122l-17 28q32 17 44 37.5t12 57.5h-55v90h92v-91z" />
    <glyph glyph-name="dagger" unicode="&#x2020;" horiz-adv-x="567" 
d="M504 456h-196v-581h-48v581h-197v44h197v209h48v-209h196v-44z" />
    <glyph glyph-name="daggerdbl" unicode="&#x2021;" horiz-adv-x="567" 
d="M505 84h-197v-209h-48v209h-196v44h196v328h-197v44h197v209h48v-209h196v-44h-196v-328h197v-44z" />
    <glyph glyph-name="bullet" unicode="&#x2022;" horiz-adv-x="426" 
d="M328 292q0 -48 -33.5 -81.5t-81.5 -33.5t-81.5 33.5t-33.5 81.5t33.5 81.5t81.5 33.5t81.5 -33.5t33.5 -81.5z" />
    <glyph glyph-name="ellipsis" unicode="&#x2026;" horiz-adv-x="858" 
d="M758 0h-86v89h86v-89zM472 0h-86v89h86v-89zM186 0h-86v89h86v-89z" />
    <glyph glyph-name="perthousand" unicode="&#x2030;" horiz-adv-x="1139" 
d="M1081 168q0 -75 -32 -122q-41 -58 -115 -58q-75 0 -116 58q-32 47 -32 122t32 122q41 58 116 58q74 0 115 -58q32 -47 32 -122zM363 541q0 -75 -32 -122q-42 -59 -115 -59q-74 0 -116 59q-32 47 -32 122q0 74 32 121q42 59 115 59q74 0 116 -59q32 -47 32 -121zM679 694
l-518 -706l-35 27l517 704zM732 168q0 -76 -31 -122q-41 -58 -116 -58t-116 58q-32 47 -32 122t32 122q41 58 116 58t116 -58q31 -46 31 -122zM1036 168q0 61 -25 98.5t-77 37.5t-77 -37.5t-25 -98.5t25 -98.5t77 -37.5t77 37.5t25 98.5zM318 541q0 60 -25.5 98t-77.5 38
t-77 -37.5t-25 -98.5q0 -60 25.5 -98t77.5 -38t77 37.5t25 98.5zM687 168q0 61 -25 98.5t-77 37.5t-77 -37.5t-25 -98.5t25 -98.5t77 -37.5t77 37.5t25 98.5z" />
    <glyph glyph-name="guilsinglleft" unicode="&#x2039;" horiz-adv-x="315" 
d="M250 98l-33 -26l-162 219l162 219l33 -25l-136 -194z" />
    <glyph glyph-name="guilsinglright" unicode="&#x203a;" horiz-adv-x="315" 
d="M260 291l-161 -219l-34 26l137 193l-137 194l34 25z" />
    <glyph glyph-name="fraction" unicode="&#x2044;" horiz-adv-x="589" 
d="M574 694l-518 -706l-35 27l517 704z" />
    <glyph glyph-name="Euro" unicode="&#x20ac;" horiz-adv-x="593" 
d="M568 35q-69 -48 -168 -48q-116 0 -193 78q-67 68 -84 192h-84v42h80q-1 16 -1 49t1 49h-80v42h84q14 119 84 191q78 79 193 79q99 0 168 -48l-19 -42q-63 42 -149 42q-99 0 -161 -68q-52 -57 -62 -154h289l-19 -42h-273q-1 -17 -1 -50q0 -32 1 -48h235l-19 -42h-213
q10 -97 62 -154q62 -68 161 -68q86 0 149 42z" />
    <glyph glyph-name="recordright" unicode="&#x2117;" horiz-adv-x="880" 
d="M807 354q0 -153 -107 -261.5t-260 -108.5t-260 108.5t-107 261.5t107 261.5t260 108.5t260 -108.5t107 -261.5zM759 354q0 136 -92.5 231t-226.5 95t-226.5 -95t-92.5 -231q0 -135 92.5 -230t226.5 -95t226.5 95t92.5 230zM598 412q0 -51 -34 -85.5t-95 -34.5h-87v-143
h-47v384h135q61 0 94.5 -35t33.5 -86zM552 413q0 30 -20.5 51.5t-61.5 21.5h-88v-147h87q41 0 62 22t21 52z" />
    <glyph glyph-name="trademark" unicode="&#x2122;" horiz-adv-x="826" 
d="M743 307h-42v353l-123 -344h-29l-123 344v-353h-41v403h63l116 -326l115 326h64v-403zM299 669h-115v-362h-42v362h-115v41h272v-41z" />
    <glyph glyph-name="arrowleft" unicode="&#x2190;" horiz-adv-x="842" 
d="M796 282h-676l277 -275l-30 -30l-328 327l327 327l30 -30l-276 -274h676v-45z" />
    <glyph glyph-name="arrowright" unicode="&#x2192;" horiz-adv-x="842" 
d="M803 304l-328 -327l-30 30l277 275h-676v45h676l-276 274l30 30z" />
    <glyph glyph-name="arrowupleft" unicode="&#x2196;" horiz-adv-x="705" 
d="M659 177l-33 -33l-488 488v-390h-42v467h454v-43h-381z" />
    <glyph glyph-name="arrowupright" unicode="&#x2197;" horiz-adv-x="705" 
d="M609 242h-42v390l-488 -488l-33 33l490 489h-381v43h454v-467z" />
    <glyph glyph-name="product" unicode="&#x220f;" horiz-adv-x="898" 
d="M818 856h-738v19h738v-19zM818 666h-738v19h738v-19zM818 477h-738v19h738v-19zM818 287h-738v19h738v-19zM818 98h-738v19h738v-19zM818 -92h-738v19h738v-19zM818 -281h-738v19h738v-19z" />
    <glyph glyph-name="minus" unicode="&#x2212;" horiz-adv-x="630" 
d="M532 279h-464v46h464v-46z" />
    <glyph glyph-name="radical" unicode="&#x221a;" horiz-adv-x="680" 
d="M690 788h-116l-265 -796h-51l-173 497h54l145 -426l253 769h153v-44z" />
    <glyph glyph-name="infinity" unicode="&#x221e;" horiz-adv-x="818" 
d="M755 302q0 -66 -46.5 -113t-114.5 -47q-92 0 -184 126q-92 -126 -186 -126q-68 0 -114.5 47t-46.5 113t46.5 113.5t114.5 47.5q94 0 186 -126q50 69 94 97.5t90 28.5q68 0 114.5 -47.5t46.5 -113.5zM711 302q0 50 -35 83.5t-83 33.5q-40 0 -77 -29t-82 -88
q44 -59 81 -87.5t78 -28.5q48 0 83 33t35 83zM386 302q-88 117 -161 117q-48 0 -82.5 -33.5t-34.5 -83.5t34.5 -83t82.5 -33q74 0 161 116z" />
    <glyph glyph-name="approxequal" unicode="&#x2248;" horiz-adv-x="641" 
d="M558 387q-33 -33 -62.5 -49.5t-70.5 -16.5q-38 0 -105.5 32.5t-104.5 32.5q-30 0 -49.5 -11t-47.5 -37l-35 35q33 34 62.5 50t69.5 16q41 0 110 -31.5t100 -31.5t50.5 10t47.5 36zM558 172q-63 -65 -133 -65q-38 0 -105.5 32t-104.5 32q-30 0 -49.5 -11t-47.5 -37l-35 35
q33 34 62.5 50t69.5 16q41 0 110 -31t100 -31q32 0 51.5 10t46.5 35z" />
    <glyph glyph-name="notequal" unicode="&#x2260;" horiz-adv-x="693" 
d="M580 136h-322l-73 -109l-33 22l58 87h-97v46h128l128 191h-256v46h287l72 107l33 -22l-57 -85h132v-46h-163l-128 -191h291v-46z" />
    <glyph glyph-name="blank" unicode="&#x2423;" horiz-adv-x="926" 
d="M846 -72h-766v220h40v-178h687v178h39v-220z" />
    <glyph glyph-name="ampersand.alt" unicode="&#xe026;" horiz-adv-x="720" 
d="M636 -1h-317q-95 0 -157.5 50.5t-62.5 143.5q0 57 32 103.5t88 70.5q-50 18 -78.5 61t-28.5 95q0 91 60.5 139.5t146.5 48.5q43 0 85 -10v-45q-38 8 -78 8q-68 0 -115.5 -35.5t-47.5 -103.5q0 -67 43.5 -102t111.5 -35h155v119h50v-119h113v-44h-113v-299h113v-46z
M473 45v299h-155q-71 0 -119.5 -41.5t-48.5 -110.5q0 -71 48.5 -109t124.5 -38h150z" />
    <glyph glyph-name="zero.alt" unicode="&#xe030;" 
d="M507 348q0 -226 -82 -305q-58 -56 -141 -56t-141 56q-82 79 -82 305t82 305q58 56 141 56t141 -56q82 -79 82 -305zM429 562q-13 34 -38 59q-42 40 -107 40t-107 -40q-29 -28 -44.5 -80.5t-18 -92t-2.5 -100.5q0 -104 12 -162zM456 348q0 106 -13 165l-305 -376
q14 -37 39 -62q42 -40 107 -40t107 40q29 28 44.5 80.5t18 92t2.5 100.5z" />
    <glyph glyph-name="one.alt" unicode="&#xe031;" 
d="M498 0h-376v48h163v585l-173 -127v56l178 133h45v-647h163v-48z" />
    <glyph glyph-name="apple" unicode="&#xf8ff;" horiz-adv-x="588" 
d="M539 364q0 -41 -26.5 -67.5t-66.5 -26.5h-72q17 -23 17 -54q0 -40 -26.5 -66.5t-66.5 -26.5h-249v248q0 41 26.5 67.5t66.5 26.5q30 0 55 -17v71q0 41 26.5 67.5t66.5 26.5t66.5 -26.5t26.5 -67.5v-62h63q40 0 66.5 -26.5t26.5 -66.5zM522 364q0 34 -21 55t-55 21h-79v79
q0 34 -21.5 55.5t-55.5 21.5t-55 -21.5t-21 -55.5v-232h232q34 0 55 21.5t21 55.5z" />
    </font>
</defs>
</svg>
